×

¿Problemas para descargar con Mozilla, EDGE? Deshabilita la opción "Abrir vinculos en una pestaña nueva" tal como lo muestra ésta imagen.

Misión: Imposible Sentencia mortal parte uno (2023) 1080p Latino

207 vistas

Información de Misión: Imposible Sentencia mortal parte uno (2023) 1080p Latino

Datos de la película

  • Calidad: 1080p
  • Audio: Español Latino AC3 5.1 BLURAY - Ingles AC3 5.1 BLURAY
  • Subtitulos: Español Latino SRT- FORZADOS SRT
  • Resolución: 1920x804p
  • Formato: MKV
  • Codec: H.264
  • Encoder: CinefiloCool
  • Mediainfo: Clic para Mostrar Datos Ver
  • Mission.Impossible.Dead.Reckoning.Part.One.2023.1080p.Latino-CC@CMHDD.mkv
    Format                      : Matroska
    Format version              : Version 4
    File size                   : 5.13 GiB
    Duration                    : 2 h 43 min
    Overall bit rate            : 4 494 kb/s
    Movie name                  : Mission: Impossible - Dead Reckoning Part One (2023) CinemaniaHDD.Net
    Encoded date                : UTC 2023-10-25 22:49:25
    Writing application         : mkvmerge v56.1.0 ('My Friend') 64-bit
    Writing library             : libebml v1.4.2 + libmatroska v1.6.4
    Attachments                 : CINEMANIAHD.png

    Video
    ID                          : 1
    Format                      : AVC
    Format/Info                 : Advanced Video Codec
    Format profile              : High@L4.1
    Format settings             : CABAC / 5 Ref Frames
    Format settings, CABAC      : Yes
    Format settings, Reference  : 5 frames
    Codec ID                    : V_MPEG4/ISO/AVC
    Duration                    : 2 h 43 min
    Bit rate                    : 3 500 kb/s
    Width                       : 1 920 pixels
    Height                      : 804 pixels
    Display aspect ratio        : 2.40:1
    Frame rate mode             : Constant
    Frame rate                  : 23.976 (24000/1001) FPS
    Color space                 : YUV
    Chroma subsampling          : 4:2:0
    Bit depth                   : 8 bits
    Scan type                   : Progressive
    Bits/(Pixel*Frame)          : 0.095
    Stream size                 : 3.89 GiB (76%)
    Title                       : HD1080p [CinemaniaHDD]
    Writing library             : x264 core 163 r3059 b684ebe0
    Encoding settings           : cabac=1 / ref=5 / deblock=1:-1:-1 / analyse=0x3:0x133 / me=umh / subme=9 / psy=1 / psy_rd=1.00:0.15 / mixed_ref=1 / me_range=16 / chroma_me=1 / trellis=2 / 8x8dct=1 / cqm=0 / deadzone=21,11 / fast_pskip=1 / chroma_qp_offset=-3 / threads=24 / lookahead_threads=2 / sliced_threads=0 / nr=0 / decimate=1 / interlaced=0 / bluray_compat=0 / constrained_intra=0 / bframes=3 / b_pyramid=2 / b_adapt=2 / b_bias=0 / direct=3 / weightb=1 / open_gop=0 / weightp=2 / keyint=240 / keyint_min=24 / scenecut=40 / intra_refresh=0 / rc_lookahead=60 / rc=abr / mbtree=1 / bitrate=3500 / ratetol=1.0 / qcomp=0.60 / qpmin=0 / qpmax=69 / qpstep=4 / vbv_maxrate=62500 / vbv_bufsize=78125 / nal_hrd=none / filler=0 / ip_ratio=1.40 / aq=1:1.00
    Default                     : Yes
    Forced                      : Yes
    Color range                 : Limited
    Color primaries             : BT.709
    Transfer characteristics    : BT.709
    Matrix coefficients         : BT.709

    Audio #1
    ID                          : 2
    ID in the original source m : 4354 (0x1102)
    Format                      : AC-3
    Format/Info                 : Audio Coding 3
    Commercial name             : Dolby Digital
    Codec ID                    : A_AC3
    Duration                    : 2 h 43 min
    Bit rate mode               : Constant
    Bit rate                    : 640 kb/s
    Channel(s)                  : 6 channels
    Channel layout              : L R C LFE Ls Rs
    Sampling rate               : 48.0 kHz
    Frame rate                  : 31.250 FPS (1536 SPF)
    Compression mode            : Lossy
    Stream size                 : 748 MiB (14%)
    Title                       : Español Latino [CinemaniaHDD]
    Language                    : Spanish
    Service kind                : Complete Main
    Default                     : Yes
    Forced                      : Yes
    Original source medium      : Blu-ray

    Audio #2
    ID                          : 3
    ID in the original source m : 4352 (0x1100)
    Format                      : AC-3
    Format/Info                 : Audio Coding 3
    Commercial name             : Dolby Digital
    Codec ID                    : A_AC3
    Duration                    : 2 h 43 min
    Bit rate mode               : Constant
    Bit rate                    : 448 kb/s
    Channel(s)                  : 6 channels
    Channel layout              : L R C LFE Ls Rs
    Sampling rate               : 48.0 kHz
    Frame rate                  : 31.250 FPS (1536 SPF)
    Compression mode            : Lossy
    Stream size                 : 524 MiB (10%)
    Title                       : Ingles [CinemaniaHDD]
    Language                    : English
    Service kind                : Complete Main
    Default                     : No
    Forced                      : No
    Original source medium      : Blu-ray

    Text #1
    ID                          : 4
    Format                      : UTF-8
    Codec ID                    : S_TEXT/UTF8
    Codec ID/Info               : UTF-8 Plain Text
    Duration                    : 2 h 35 min
    Bit rate                    : 1 b/s
    Count of elements           : 60
    Stream size                 : 1.47 KiB (0%)
    Title                       : Forzados-SRT [CinemaniaHDD]
    Default                     : Yes
    Forced                      : Yes

    Text #2
    ID                          : 5
    Format                      : UTF-8
    Codec ID                    : S_TEXT/UTF8
    Codec ID/Info               : UTF-8 Plain Text
    Duration                    : 2 h 35 min
    Bit rate                    : 50 b/s
    Count of elements           : 1815
    Stream size                 : 57.7 KiB (0%)
    Title                       : Español-SRT [CinemaniaHDD]
    Language                    : Spanish
    Default                     : No
    Forced                      : No

    Menu
    00:00:00.000                : Chapter 01
    00:07:23.776                : Chapter 02
    00:15:48.322                : Chapter 03
    00:28:03.556                : Chapter 04
    00:32:36.287                : Chapter 05
    00:45:36.608                : Chapter 06
    00:55:57.270                : Chapter 07
    01:08:52.670                : Chapter 08
    01:17:42.824                : Chapter 09
    01:31:15.845                : Chapter 10
    01:41:37.591                : Chapter 11
    01:51:37.732                : Chapter 12
    02:01:39.583                : Chapter 13
    02:14:11.043                : Chapter 14
    02:21:30.565                : Chapter 15
    02:35:25.816                : Chapter 16

  • Peso: 5.13 GiB

Sinopsis

Descargar Misión: Imposible Sentencia mortal parte uno (2023) 1080p Latino. Ethan Hunt y su equipo del FMI, se embarcan en su misión más peligrosa hasta la fecha: localizar, antes de que caiga en las manos equivocadas, una nueva y terrorífica arma que amenaza a toda la humanidad. En esta tesitura, y con unas fuerzas oscuras del pasado de Ethan acechando, comienza una carrera mortal alrededor del mundo en la que está en juego el control del futuro y el destino del planeta. Enfrentado a un enemigo misterioso y todopoderoso, Ethan se ve obligado a considerar que nada puede anteponerse a su misión, ni siquiera las vidas de aquellos que más le importan.

Ficha técnica

Video trailer de la película

Enlaces de descarga

Rip de Bluray

Descargar Misión: Imposible Sentencia mortal parte uno (2023) 1080p Latino




Aportes de DPeliculasHDmega la pass es:dpeliculashdmega.org Aportes de CinemaniaHD la pass es:cinemaniahdd.com Aportes recientes:cinemaniahdd.net
Guardado en : Acción , HD 1080p , Suspenso

Películas relacionadas

descargar Misión: Imposible Sentencia mortal parte uno (2023) 1080p Latino 1080p 1080p gratis, Misión: Imposible Sentencia mortal parte uno (2023) 1080p Latino 1080p mega 1 link, Misión: Imposible Sentencia mortal parte uno (2023) 1080p Latino 1080p pelicula completa, descargar Misión: Imposible Sentencia mortal parte uno (2023) 1080p Latino 1080p gratis en mega.

Misión: Imposible Sentencia mortal parte uno (2023) 1080p Latino pelicula full hd, Misión: Imposible Sentencia mortal parte uno (2023) 1080p Latino mega latino, Misión: Imposible Sentencia mortal parte uno (2023) 1080p Latino 4k latino, Misión: Imposible Sentencia mortal parte uno (2023) 1080p Latino pelicula completa, Misión: Imposible Sentencia mortal parte uno (2023) 1080p Latino descargar gratis, descargar Misión: Imposible Sentencia mortal parte uno (2023) 1080p Latino pelicula latino, Misión: Imposible Sentencia mortal parte uno (2023) 1080p Latino 1 link mega, Misión: Imposible Sentencia mortal parte uno (2023) 1080p Latino 1 link google drive, Misión: Imposible Sentencia mortal parte uno (2023) 1080p Latino hd 1080p latino.
Comentarios 0