Dead Again in Tombstone (2017) 1080p Latino

1.831 vistas
1 estrella2 estrellas3 estrellas4 estrellas5 estrellas (1 votos, promedio: 5,00 de 5)
Cargando…

Información de Dead Again in Tombstone (2017) 1080p Latino

Datos de la película

  • Calidad: 1080p
  • Audio: Español Latino AC3 5.1 BLURAY - Ingles AC3 5.1 BLURAY
  • Subtitulos: Español Latino SRT
  • Resolución: 1920x1080p
  • Formato: MKV
  • Codec: H.264
  • Encoder: Dpelis
  • Mediainfo: Clic para Mostrar Datos Ver
  • Dead Again in Tombstone (2017 1080p Latino.mkv
    Format                      : Matroska
    Format version              : Version 4 / Version 2
    File size                   : 2.92 GiB
    Duration                    : 1 h 39 min
    Overall bit rate            : 4 212 kb/s
    Movie name                  : DPeliculasHDMega.ORG
    Encoded date                : UTC 2017-09-01 02:34:19 / UTC 2017-08-31T12:48:58Z
    Writing application         : mkvmerge v10.0.0 ('To Drown In You') 64bit
    Writing library             : libebml v1.3.4 + libmatroska v1.4.5 / Lavf57.7.2

    Video
    ID                          : 1
    Format                      : AVC
    Format/Info                 : Advanced Video Codec
    Format profile              : High@L4.1
    Format settings, CABAC      : Yes
    Format settings, ReFrames   : 4 frames
    Codec ID                    : V_MPEG4/ISO/AVC
    Duration                    : 1 h 39 min
    Bit rate                    : 3 500 kb/s
    Width                       : 1 920 pixels
    Height                      : 1 080 pixels
    Display aspect ratio        : 16:9
    Frame rate mode             : Constant
    Frame rate                  : 23.976 (24000/1001) FPS
    Color space                 : YUV
    Chroma subsampling          : 4:2:0
    Bit depth                   : 8 bits
    Scan type                   : Progressive
    Bits/(Pixel*Frame)          : 0.070
    Stream size                 : 2.33 GiB (80%)
    Writing library             : x264 core 148 r2708 86b7198
    Encoding settings           : cabac=1 / ref=3 / deblock=1:0:0 / analyse=0x3:0x113 / me=hex / subme=7 / psy=1 / psy_rd=1.00:0.00 / mixed_ref=1 / me_range=16 / chroma_me=1 / trellis=1 / 8x8dct=1 / cqm=0 / deadzone=21,11 / fast_pskip=1 / chroma_qp_offset=-2 / threads=34 / lookahead_threads=5 / sliced_threads=0 / nr=0 / decimate=1 / interlaced=0 / bluray_compat=0 / constrained_intra=0 / bframes=3 / b_pyramid=2 / b_adapt=1 / b_bias=0 / direct=1 / weightb=1 / open_gop=0 / weightp=2 / keyint=240 / keyint_min=24 / scenecut=40 / intra_refresh=0 / rc_lookahead=40 / rc=abr / mbtree=1 / bitrate=3500 / ratetol=1.0 / qcomp=0.60 / qpmin=0 / qpmax=69 / qpstep=4 / vbv_maxrate=62500 / vbv_bufsize=78125 / nal_hrd=none / filler=0 / ip_ratio=1.40 / aq=1:1.00
    Default                     : Yes
    Forced                      : No
    Color range                 : Limited
    Color primaries             : BT.709
    Transfer characteristics    : BT.709
    Matrix coefficients         : BT.709
    Statistics Tags Issue       : mkvmerge v10.0.0 ('To Drown In You') 64bit 2017-09-01 02:34:19 / mkvmerge v10.0.0 ('To Drown In You') 64bit 2017-09-01 02:34:19 / UTC 2017-08-31T12:48:58Z
    FromStats_BitRate           : 3427005
    FromStats_Duration          : 01:39:08.318000000
    FromStats_FrameCount        : 142617
    FromStats_StreamSize        : 2548114751

    Audio #1
    ID                          : 2
    Format                      : AC-3
    Format/Info                 : Audio Coding 3
    Format settings, Endianness : Big
    Codec ID                    : A_AC3
    Duration                    : 1 h 39 min
    Bit rate mode               : Constant
    Bit rate                    : 384 kb/s
    Channel(s)                  : 6 channels
    Channel positions           : Front: L C R, Side: L R, LFE
    Sampling rate               : 48.0 kHz
    Frame rate                  : 31.250 FPS (1536 spf)
    Bit depth                   : 16 bits
    Compression mode            : Lossy
    Delay relative to video     : -5 ms
    Stream size                 : 272 MiB (9%)
    Title                       : Surround
    Language                    : Spanish
    Service kind                : Complete Main
    Default                     : Yes
    Forced                      : No
    Statistics Tags Issue       : mkvmerge v10.0.0 ('To Drown In You') 64bit 2017-09-01 02:34:19 / mkvmerge v10.0.0 ('To Drown In You') 64bit 2017-09-01 02:34:19 / UTC 2017-08-31T12:48:58Z
    FromStats_BitRate           : 384000
    FromStats_Duration          : 01:39:08.320000000
    FromStats_FrameCount        : 185885
    FromStats_StreamSize        : 285519360

    Audio #2
    ID                          : 3
    Format                      : AC-3
    Format/Info                 : Audio Coding 3
    Format settings, Endianness : Big
    Codec ID                    : A_AC3
    Duration                    : 1 h 39 min
    Bit rate mode               : Constant
    Bit rate                    : 384 kb/s
    Channel(s)                  : 6 channels
    Channel positions           : Front: L C R, Side: L R, LFE
    Sampling rate               : 48.0 kHz
    Frame rate                  : 31.250 FPS (1536 spf)
    Bit depth                   : 16 bits
    Compression mode            : Lossy
    Delay relative to video     : -5 ms
    Stream size                 : 272 MiB (9%)
    Title                       : Surround
    Language                    : English
    Service kind                : Complete Main
    Default                     : No
    Forced                      : No
    Statistics Tags Issue       : mkvmerge v10.0.0 ('To Drown In You') 64bit 2017-09-01 02:34:19 / mkvmerge v10.0.0 ('To Drown In You') 64bit 2017-09-01 02:34:19 / UTC 2017-08-31T12:48:58Z
    FromStats_BitRate           : 384000
    FromStats_Duration          : 01:39:08.320000000
    FromStats_FrameCount        : 185885
    FromStats_StreamSize        : 285519360

    Text #1
    ID                          : 4
    Format                      : PGS
    Muxing mode                 : zlib
    Codec ID                    : S_HDMV/PGS
    Codec ID/Info               : Picture based subtitle format used on BDs/HD-DVDs
    Language                    : Spanish
    Default                     : No
    Forced                      : No
    Statistics Tags Issue       : mkvmerge v10.0.0 ('To Drown In You') 64bit 2017-09-01 02:34:19 / mkvmerge v10.0.0 ('To Drown In You') 64bit 2017-09-01 02:34:19 / UTC 2017-08-31T12:48:58Z
    FromStats_BitRate           : 6672
    FromStats_Duration          : 01:37:29.635000000
    FromStats_FrameCount        : 1740
    FromStats_StreamSize        : 4878822

    Text #2
    ID                          : 5
    Format                      : PGS
    Muxing mode                 : zlib
    Codec ID                    : S_HDMV/PGS
    Codec ID/Info               : Picture based subtitle format used on BDs/HD-DVDs
    Language                    : Spanish
    Default                     : No
    Forced                      : No
    Statistics Tags Issue       : mkvmerge v10.0.0 ('To Drown In You') 64bit 2017-09-01 02:34:19 / mkvmerge v10.0.0 ('To Drown In You') 64bit 2017-09-01 02:34:19 / UTC 2017-08-31T12:48:58Z
    FromStats_BitRate           : 51
    FromStats_Duration          : 01:31:38.409000000
    FromStats_FrameCount        : 12
    FromStats_StreamSize        : 35117

    Text #3
    ID                          : 6
    Format                      : PGS
    Muxing mode                 : zlib
    Codec ID                    : S_HDMV/PGS
    Codec ID/Info               : Picture based subtitle format used on BDs/HD-DVDs
    Language                    : English
    Default                     : No
    Forced                      : No
    Statistics Tags Issue       : mkvmerge v10.0.0 ('To Drown In You') 64bit 2017-09-01 02:34:19 / mkvmerge v10.0.0 ('To Drown In You') 64bit 2017-09-01 02:34:19 / UTC 2017-08-31T12:48:58Z
    FromStats_BitRate           : 8399
    FromStats_Duration          : 01:35:14.960000000
    FromStats_FrameCount        : 2069
    FromStats_StreamSize        : 6000119

    Text #4
    ID                          : 7
    Format                      : UTF-8
    Codec ID                    : S_TEXT/UTF8
    Codec ID/Info               : UTF-8 Plain Text
    Language                    : Spanish
    Default                     : Yes
    Forced                      : No
    Statistics Tags Issue       : mkvmerge v10.0.0 ('To Drown In You') 64bit 2017-09-01 02:34:19 / mkvmerge v10.0.0 ('To Drown In You') 64bit 2017-09-01 02:34:19 / UTC 2017-08-31T12:48:58Z
    FromStats_BitRate           : 35
    FromStats_Duration          : 01:34:11.228000000
    FromStats_FrameCount        : 869
    FromStats_StreamSize        : 25124

    Menu
    00:00:00.000                : :Chapter 1
    00:06:41.151                : :Chapter 2
    00:12:29.290                : :Chapter 3
    00:16:55.264                : :Chapter 4
    00:23:28.365                : :Chapter 5
    00:28:59.655                : :Chapter 6
    00:33:37.098                : :Chapter 7
    00:36:55.004                : :Chapter 8
    00:42:44.771                : :Chapter 9
    00:47:29.847                : :Chapter 10
    00:52:53.796                : :Chapter 11
    00:56:12.077                : :Chapter 12
    01:01:01.449                : :Chapter 13
    01:04:17.729                : :Chapter 14
    01:09:17.403                : :Chapter 15
    01:12:36.310                : :Chapter 16
    01:18:47.181                : :Chapter 17
    01:23:31.757                : :Chapter 18
    01:30:14.034                : :Chapter 19
    01:36:06.344                : :Chapter 20

  • Peso: 2.92 GB

Sinopsis

Guerrero (Danny Trejo, Machete) regresa de los muertos otra vez en este western lleno de acción que promete ser un infierno de un paseo. Guerrero se ve obligado a proteger una reliquia robada de entrar en las manos de Jackson Boomer (Jake Busey, Starship Troopers) y su pandilla de soldados, pero Jackson no se detendrá ante nada para levantar a sus compañeros de entre los muertos y traer la ira del infierno sobre la tierra . Guerrero debe usar todos sus poderes oscuros para derrotar a Jackson y encontrar la redención … o morir de nuevo tratando.

Ficha técnica

  • Titulo original: Dead Again in Tombstone
  • Fecha de lanzamiento: 30-08-2017 (United States of America)
  • Director: Roel Reiné
  • Género: Acción, Fantasía, Terror, Western
  • Puntuación: 5.0 1 votos
  • Duración:
    1h 39m

Video trailer de la película

Enlaces de descarga

Rip de Bluray

Descargar Dead Again in Tombstone (2017) 1080p Latino




Aportes de DPeliculasHDmega la pass es:dpeliculashdmega.org Aportes de CinemaniaHD la pass es:cinemaniahdd.com
Guardado en : Acción , Fantasía , Terror , Western

Películas relacionadas

  • Cam (2018) NF 1080p Latino

    2018
    Cam (2018) NF 1080p Latino

    0.0 1h 34m 2018

    Alice es una camgirl con un código inamovible, que le permite mantener una cierta distancia con los...

    Director: Rachel Penner

    Género: Suspense

    Actores: Samantha Robinson

  • El Justiciero 2 (2018) Full 1080p Latino

    2018
    El Justiciero 2 (2018) Full 1080p Latino

    5.0 2h 0m 2018

    Descargar El Justiciero 2 (2018) Full 1080p Latino, Mega, Google Drive. Robert McCall (Denzel Washington)...

    Director: Donald Sparks

    Género: Acción

    Actores: Wesley Pereira

Comentarios 0