×

¿Problemas para descargar con Mozilla, EDGE? Deshabilita la opción "Abrir vinculos en una pestaña nueva" tal como lo muestra ésta imagen.

A Bad Idea Gone Wrong (2017) AMZN Web-DL 1080p Latino

823 vistas

Información de A Bad Idea Gone Wrong (2017) AMZN Web-DL 1080p Latino

Datos de la película

  • Calidad: WEBDL
  • Audio: Español Latino AC3 2.0 Capturado - Ingles AC3 5.1 WEBDL
  • Subtitulos: No Disponible en Subdivx
  • Resolución: 1920x1040p
  • Formato: MKV
  • Codec: H.264
  • Encoder: CinemaniaHD
  • Mediainfo: Clic para Mostrar Datos Ver
  • De Mal En Peor (2017) AMZN Web-DL 1080p Latino-CMHDD.mkv
    Format                      : Matroska
    Format version              : Version 4
    File size                   : 4.11 GiB
    Duration                    : 1 h 21 min
    Overall bit rate mode       : Variable
    Overall bit rate            : 7 248 kb/s
    Movie name                  : CinemaniaHDD.Net
    Encoded date                : UTC 2020-04-07 23:10:26
    Writing application         : mkvmerge v42.0.0 ('Overtime') 64-bit
    Writing library             : libebml v1.3.10 + libmatroska v1.5.2
    Attachments                 : CINEMANIAHD.png

    Video
    ID                          : 1
    Format                      : AVC
    Format/Info                 : Advanced Video Codec
    Format profile              : High@L4
    Format settings             : CABAC / 4 Ref Frames
    Format settings, CABAC      : Yes
    Format settings, ReFrames   : 4 frames
    Codec ID                    : V_MPEG4/ISO/AVC
    Duration                    : 1 h 21 min
    Bit rate mode               : Variable
    Bit rate                    : 6 350 kb/s
    Maximum bit rate            : 15.0 Mb/s
    Width                       : 1 920 pixels
    Height                      : 1 040 pixels
    Display aspect ratio        : 1.85:1
    Frame rate mode             : Constant
    Frame rate                  : 23.976 (24000/1001) FPS
    Color space                 : YUV
    Chroma subsampling          : 4:2:0
    Bit depth                   : 8 bits
    Scan type                   : Progressive
    Bits/(Pixel*Frame)          : 0.133
    Stream size                 : 3.60 GiB (88%)
    Title                       : HD1080p [Web]
    Default                     : Yes
    Forced                      : Yes
    Color range                 : Limited
    Color primaries             : BT.709
    Transfer characteristics    : BT.709
    Matrix coefficients         : BT.709

    Audio #1
    ID                          : 2
    Format                      : AC-3
    Format/Info                 : Audio Coding 3
    Commercial name             : Dolby Digital
    Codec ID                    : A_AC3
    Duration                    : 1 h 21 min
    Bit rate mode               : Constant
    Bit rate                    : 256 kb/s
    Channel(s)                  : 2 channels
    Channel layout              : L R
    Sampling rate               : 48.0 kHz
    Frame rate                  : 31.250 FPS (1536 SPF)
    Bit depth                   : 16 bits
    Compression mode            : Lossy
    Stream size                 : 149 MiB (4%)
    Title                       : AC3_2.0_Capt_Esp
    Language                    : Spanish
    Service kind                : Complete Main
    Default                     : Yes
    Forced                      : Yes

    Audio #2
    ID                          : 3
    Format                      : AC-3
    Format/Info                 : Audio Coding 3
    Commercial name             : Dolby Digital
    Codec ID                    : A_AC3
    Duration                    : 1 h 21 min
    Bit rate mode               : Constant
    Bit rate                    : 640 kb/s
    Channel(s)                  : 6 channels
    Channel layout              : L R C LFE Ls Rs
    Sampling rate               : 48.0 kHz
    Frame rate                  : 31.250 FPS (1536 SPF)
    Bit depth                   : 16 bits
    Compression mode            : Lossy
    Stream size                 : 371 MiB (9%)
    Title                       : AC3_5.1_Web_Eng
    Language                    : English
    Service kind                : Complete Main
    Default                     : No
    Forced                      : No

  • Peso: 4.11 GiB

Sinopsis

Descargar A Bad Idea Gone Wrong [De Mal En Peor] (2017) AMZN Web-DL 1080p Latino. Marlon y Leo, dos hombres con problemas económicos y sin ninguna experiencia en el mundo del crimen deciden robar una casa en un barrio cerrado. Pero cuando logran entrar, Marlon activa la alarma de la casa accidentalmente, y ambos quedan atrapados ahí. En una de las habitaciones se encuentran con Darcy, quien está cuidando la casa y se verán en una situación cada vez más complicada.

Ficha técnica

  • Titulo original: A Bad Idea Gone Wrong
  • Fecha de lanzamiento: 30-11-2017
  • Director: Jason Headley
  • Género: Comedia

Video trailer de la película

Enlaces de descarga

Rip de Bluray

Descargar A Bad Idea Gone Wrong (2017) AMZN Web-DL 1080p Latino




Aportes de DPeliculasHDmega la pass es:dpeliculashdmega.org Aportes de CinemaniaHD la pass es:cinemaniahdd.com
Guardado en : Comedia

Películas relacionadas

descargar A Bad Idea Gone Wrong (2017) AMZN Web-DL 1080p Latino WEBDL 1080p gratis, A Bad Idea Gone Wrong (2017) AMZN Web-DL 1080p Latino WEBDL mega 1 link, A Bad Idea Gone Wrong (2017) AMZN Web-DL 1080p Latino WEBDL pelicula completa, descargar A Bad Idea Gone Wrong (2017) AMZN Web-DL 1080p Latino WEBDL gratis en mega.

A Bad Idea Gone Wrong (2017) AMZN Web-DL 1080p Latino pelicula full hd, A Bad Idea Gone Wrong (2017) AMZN Web-DL 1080p Latino mega latino, A Bad Idea Gone Wrong (2017) AMZN Web-DL 1080p Latino 4k latino, A Bad Idea Gone Wrong (2017) AMZN Web-DL 1080p Latino pelicula completa, A Bad Idea Gone Wrong (2017) AMZN Web-DL 1080p Latino descargar gratis, descargar A Bad Idea Gone Wrong (2017) AMZN Web-DL 1080p Latino pelicula latino, A Bad Idea Gone Wrong (2017) AMZN Web-DL 1080p Latino 1 link mega, A Bad Idea Gone Wrong (2017) AMZN Web-DL 1080p Latino 1 link google drive, A Bad Idea Gone Wrong (2017) AMZN Web-DL 1080p Latino hd 1080p latino.
Comentarios 0