×

¿Problemas para descargar con Mozilla, EDGE? Deshabilita la opción "Abrir vinculos en una pestaña nueva" tal como lo muestra ésta imagen.

De Fiesta en las Alturas (2004) [UNRATED] REMUX 1080p SUB – CMHDD

360 vistas

Información de De Fiesta en las Alturas (2004) [UNRATED] REMUX 1080p SUB – CMHDD

Datos de la película

  • Calidad: Full 1080p
  • Audio: Ingles DTS 5.1 BLURAY
  • Subtitulos: Español Latino SRT
  • Resolución: 1920x1080p
  • Formato: MKV
  • Codec: H.264
  • Encoder: Dracarys
  • Mediainfo: Clic para Mostrar Datos Ver
  • Format                      : Matroska
    Format version              : Version 4
    File size                   : 20.6 GiB
    Duration                    : 1 h 32 min
    Overall bit rate mode       : Variable
    Overall bit rate            : 32.0 Mb/s
    Movie name                  : De Fiesta en las Alturas (2004) [UNRATED] REMUX 1080p SUB - CMHDD
    Encoded date                : UTC 2020-05-31 00:06:51
    Writing application         : mkvmerge v46.0.0 ('No Deeper Escape') 64-bit
    Writing library             : libebml v1.3.10 + libmatroska v1.5.2

    Video
    ID                          : 1
    Format                      : AVC
    Format/Info                 : Advanced Video Codec
    Format profile              : High@L4.1
    Format settings             : CABAC / 4 Ref Frames
    Format settings, CABAC      : Yes
    Format settings, Reference  : 4 frames
    Codec ID                    : V_MPEG4/ISO/AVC
    Duration                    : 1 h 32 min
    Bit rate mode               : Variable
    Bit rate                    : 27.9 Mb/s
    Maximum bit rate            : 38.0 Mb/s
    Width                       : 1 920 pixels
    Height                      : 1 080 pixels
    Display aspect ratio        : 16:9
    Frame rate mode             : Constant
    Frame rate                  : 23.976 (24000/1001) FPS
    Color space                 : YUV
    Chroma subsampling          : 4:2:0
    Bit depth                   : 8 bits
    Scan type                   : Progressive
    Bits/(Pixel*Frame)          : 0.561
    Stream size                 : 17.9 GiB (87%)
    Language                    : English
    Default                     : Yes
    Forced                      : No

    Audio
    ID                          : 2
    Format                      : DTS XLL
    Format/Info                 : Digital Theater Systems
    Commercial name             : DTS-HD Master Audio
    Codec ID                    : A_DTS
    Duration                    : 1 h 32 min
    Bit rate mode               : Variable
    Bit rate                    : 4 118 kb/s
    Channel(s)                  : 6 channels
    Channel layout              : C L R Ls Rs LFE
    Sampling rate               : 48.0 kHz
    Frame rate                  : 93.750 FPS (512 SPF)
    Bit depth                   : 24 bits
    Compression mode            : Lossless
    Stream size                 : 2.65 GiB (13%)
    Language                    : English
    Default                     : Yes
    Forced                      : No

    Text
    ID                          : 3
    Format                      : UTF-8
    Codec ID                    : S_TEXT/UTF8
    Codec ID/Info               : UTF-8 Plain Text
    Duration                    : 1 h 25 min
    Bit rate                    : 71 b/s
    Count of elements           : 1497
    Stream size                 : 44.9 KiB (0%)
    Language                    : Spanish
    Default                     : Yes
    Forced                      : No

  • Peso: 20.6 GiB

Sinopsis

Cuando Dakwon (Kevin Hart) gana 600 millones de dólares en una demanda contra una compañía por un incidente en el que murió su perro, decide lanzar su propia compañía aérea, exclusiva para pasajeros afroamericanos. Las cosas se desmadran un poco en el vuelo inicial (con Snoop Dogg de piloto), y todavía más cuando una familia de blancos (encabezados por Tom Arnold) entra accidentalmente entre los pasajeros por un desvío de otra aerolínea.

Ficha técnica

Video trailer de la película

Enlaces de descarga

Rip de Bluray

Descargar De Fiesta en las Alturas (2004) [UNRATED] REMUX 1080p SUB – CMHDD




Aportes de DPeliculasHDmega la pass es:dpeliculashdmega.org Aportes de CinemaniaHD la pass es:cinemaniahdd.com
Guardado en : Comedia , Remux , Romance

Películas relacionadas

  • Shotgun Wedding (2022) AMZN WEB-DL 1080p Latino

    Shotgun Wedding (2022) AMZN WEB-DL 1080p Latino

    2022
    Shotgun Wedding (2022) AMZN WEB-DL 1080p Latino

    1h 41m 2022

    Darcy y Tom reúnen a sus familias para la boda de destino definitiva, pero cuando toman como rehenes...

    Director: Jason Moore

    Género: Acción

    Actores: Steve Coulter

  • M3GAN (2023) AMZN WEB-DL 4K UHD HDR Latino

    M3GAN (2023) AMZN WEB-DL 4K UHD HDR Latino

    2022
    M3GAN (2023) AMZN WEB-DL 4K UHD HDR Latino

    1h 42m 2022

    Descargar M3GAN (2023) AMZN WEB-DL 4K UHD HDR Latino. Cuando Gemma se convierte en la cuidadora de su...

    Director: Stephen W. Moore

    Género: 4K HDR

    Actores: Violet McGraw

  • M3GAN (2022) MA WEB-DL 1080p Latino

    M3GAN (2022) MA WEB-DL 1080p Latino

    2022
    M3GAN (2022) MA WEB-DL 1080p Latino

    1h 42m 2022

    Descargar M3GAN (2022) MA WEB-DL 1080p Latino. Cuando Gemma se convierte en la cuidadora de su sobrina...

    Director: Stephen W. Moore

    Género: Ciencia ficción

    Actores: Violet McGraw

  • Noche sin paz (2022) PLACEBO Full HD 1080p Latino

    Noche sin paz (2022) PLACEBO Full HD 1080p Latino

    2022
    Noche sin paz (2022) PLACEBO Full HD 1080p Latino

    1h 41m 2022

    Descargar Noche sin paz (2022) PLACEBO Full HD 1080p Latino. Cuando un equipo de mercenarios irrumpe...

    Director: Tyshana Hobson

    Género: Acción

    Actores: Yoon Cha-Lee

  • Noche sin paz (2022) HD 1080p Latino

    Noche sin paz (2022) HD 1080p Latino

    2022
    Noche sin paz (2022) HD 1080p Latino

    1h 41m 2022

    Descargar Noche sin paz (2022) HD 1080p Latino. Cuando un equipo de mercenarios irrumpe en Nochebuena...

    Director: Tyshana Hobson

    Género: Acción

    Actores: Yoon Cha-Lee

descargar De Fiesta en las Alturas (2004) [UNRATED] REMUX 1080p SUB – CMHDD Full 1080p 1080p gratis, De Fiesta en las Alturas (2004) [UNRATED] REMUX 1080p SUB – CMHDD Full 1080p mega 1 link, De Fiesta en las Alturas (2004) [UNRATED] REMUX 1080p SUB – CMHDD Full 1080p pelicula completa, descargar De Fiesta en las Alturas (2004) [UNRATED] REMUX 1080p SUB – CMHDD Full 1080p gratis en mega.

De Fiesta en las Alturas (2004) [UNRATED] REMUX 1080p SUB – CMHDD pelicula full hd, De Fiesta en las Alturas (2004) [UNRATED] REMUX 1080p SUB – CMHDD mega latino, De Fiesta en las Alturas (2004) [UNRATED] REMUX 1080p SUB – CMHDD 4k latino, De Fiesta en las Alturas (2004) [UNRATED] REMUX 1080p SUB – CMHDD pelicula completa, De Fiesta en las Alturas (2004) [UNRATED] REMUX 1080p SUB – CMHDD descargar gratis, descargar De Fiesta en las Alturas (2004) [UNRATED] REMUX 1080p SUB – CMHDD pelicula latino, De Fiesta en las Alturas (2004) [UNRATED] REMUX 1080p SUB – CMHDD 1 link mega, De Fiesta en las Alturas (2004) [UNRATED] REMUX 1080p SUB – CMHDD 1 link google drive, De Fiesta en las Alturas (2004) [UNRATED] REMUX 1080p SUB – CMHDD hd 1080p latino.
Comentarios 0