×

¿Problemas para descargar con Mozilla, EDGE? Deshabilita la opción "Abrir vinculos en una pestaña nueva" tal como lo muestra ésta imagen.

De Fiesta en las Alturas (2004) [Theatrical] HD 1080p Latino – CMHDD

315 vistas

Información de De Fiesta en las Alturas (2004) [Theatrical] HD 1080p Latino – CMHDD

Datos de la película

  • Calidad: 1080p
  • Audio: Español Latino AC3 2.0 DVD - Ingles AC3 5.1 BLURAY
  • Subtitulos: Español Latino SRT
  • Resolución: 1920x1042
  • Formato: MKV
  • Codec: H.264
  • Encoder: Dracarys
  • Mediainfo: Clic para Mostrar Datos Ver
  • Format                      : Matroska
    Format version              : Version 4
    File size                   : 2.39 GiB
    Duration                    : 1 h 26 min
    Overall bit rate            : 3 962 kb/s
    Movie name                  : De Fiesta en las Alturas (2004) [Theatrical] HD 1080p Latino - CMHDD
    Encoded date                : UTC 2020-05-29 01:43:37
    Writing application         : mkvmerge v46.0.0 ('No Deeper Escape') 64-bit
    Writing library             : libebml v1.3.10 + libmatroska v1.5.2

    Video
    ID                          : 1
    Format                      : AVC
    Format/Info                 : Advanced Video Codec
    Format profile              : High@L4.1
    Format settings             : CABAC / 4 Ref Frames
    Format settings, CABAC      : Yes
    Format settings, Reference  : 4 frames
    Codec ID                    : V_MPEG4/ISO/AVC
    Duration                    : 1 h 26 min
    Bit rate                    : 3 320 kb/s
    Nominal bit rate            : 3 500 kb/s
    Width                       : 1 920 pixels
    Height                      : 1 042 pixels
    Display aspect ratio        : 1.85:1
    Frame rate mode             : Constant
    Frame rate                  : 23.976 (24000/1001) FPS
    Color space                 : YUV
    Chroma subsampling          : 4:2:0
    Bit depth                   : 8 bits
    Scan type                   : Progressive
    Bits/(Pixel*Frame)          : 0.069
    Stream size                 : 2.00 GiB (84%)
    Writing library             : x264 core 157 r2935 545de2f
    Encoding settings           : cabac=1 / ref=4 / deblock=1:0:0 / analyse=0x3:0x113 / me=hex / subme=8 / psy=1 / psy_rd=1.00:0.00 / mixed_ref=1 / me_range=16 / chroma_me=1 / trellis=2 / 8x8dct=1 / cqm=0 / deadzone=21,11 / fast_pskip=1 / chroma_qp_offset=-2 / threads=24 / lookahead_threads=4 / sliced_threads=0 / nr=0 / decimate=1 / interlaced=0 / bluray_compat=0 / constrained_intra=0 / bframes=3 / b_pyramid=2 / b_adapt=1 / b_bias=0 / direct=3 / weightb=1 / open_gop=0 / weightp=2 / keyint=240 / keyint_min=24 / scenecut=40 / intra_refresh=0 / rc_lookahead=50 / rc=abr / mbtree=1 / bitrate=3500 / ratetol=1.0 / qcomp=0.60 / qpmin=0 / qpmax=69 / qpstep=4 / vbv_maxrate=62500 / vbv_bufsize=78125 / nal_hrd=none / filler=0 / ip_ratio=1.40 / aq=1:1.00
    Default                     : Yes
    Forced                      : No
    Color range                 : Limited
    Color primaries             : BT.709
    Transfer characteristics    : BT.709
    Matrix coefficients         : BT.709

    Audio #1
    ID                          : 2
    Format                      : AC-3
    Format/Info                 : Audio Coding 3
    Commercial name             : Dolby Digital
    Codec ID                    : A_AC3
    Duration                    : 1 h 26 min
    Bit rate mode               : Constant
    Bit rate                    : 192 kb/s
    Channel(s)                  : 2 channels
    Channel layout              : L R
    Sampling rate               : 48.0 kHz
    Frame rate                  : 31.250 FPS (1536 SPF)
    Compression mode            : Lossy
    Delay relative to video     : 16 ms
    Stream size                 : 119 MiB (5%)
    Language                    : Spanish
    Service kind                : Complete Main
    Default                     : Yes
    Forced                      : No

    Audio #2
    ID                          : 3
    Format                      : AC-3
    Format/Info                 : Audio Coding 3
    Commercial name             : Dolby Digital
    Codec ID                    : A_AC3
    Duration                    : 1 h 26 min
    Bit rate mode               : Constant
    Bit rate                    : 448 kb/s
    Channel(s)                  : 6 channels
    Channel layout              : L R C LFE Ls Rs
    Sampling rate               : 48.0 kHz
    Frame rate                  : 31.250 FPS (1536 SPF)
    Compression mode            : Lossy
    Stream size                 : 277 MiB (11%)
    Language                    : English
    Service kind                : Complete Main
    Default                     : No
    Forced                      : No

    Text
    ID                          : 4
    Format                      : UTF-8
    Codec ID                    : S_TEXT/UTF8
    Codec ID/Info               : UTF-8 Plain Text
    Duration                    : 1 h 17 min
    Bit rate                    : 83 b/s
    Count of elements           : 1532
    Stream size                 : 47.3 KiB (0%)
    Language                    : Spanish
    Default                     : No
    Forced                      : No

    Menu
    00:00:00.000                : :Chapter 1
    00:01:55.115                : :Chapter 2
    00:10:20.537                : :Chapter 3
    00:20:02.827                : :Chapter 4
    00:30:03.593                : :Chapter 5
    00:39:14.394                : :Chapter 6
    00:50:52.091                : :Chapter 7
    00:59:03.373                : :Chapter 8
    01:10:52.248                : :Chapter 9
    01:19:48.701                : :Chapter 10

  • Peso: 2.39 GiB

Sinopsis

Cuando Dakwon (Kevin Hart) gana 600 millones de dólares en una demanda contra una compañía por un incidente en el que murió su perro, decide lanzar su propia compañía aérea, exclusiva para pasajeros afroamericanos. Las cosas se desmadran un poco en el vuelo inicial (con Snoop Dogg de piloto), y todavía más cuando una familia de blancos (encabezados por Tom Arnold) entra accidentalmente entre los pasajeros por un desvío de otra aerolínea.

Ficha técnica

Video trailer de la película

Enlaces de descarga

Rip de Bluray

Descargar De Fiesta en las Alturas (2004) [Theatrical] HD 1080p Latino – CMHDD




Aportes de DPeliculasHDmega la pass es:dpeliculashdmega.org Aportes de CinemaniaHD la pass es:cinemaniahdd.com
Guardado en : Comedia , HD 1080p , Romance

Películas relacionadas

  • Men in Black (1997) REMUX 4K HDR Latino – CMHDD

    Men in Black (1997) REMUX 4K HDR Latino – CMHDD

    1997
    Men in Black (1997) REMUX 4K HDR Latino – CMHDD

    1h 34m 1997

    Durante muchos años los extraterrestres han vivido en la Tierra, mezclados con los humanos, sin que...

    Director: Tyrone S. Walker

    Género: Acción

    Actores: Willie C. Carpenter

  • Borrego: Sal Del Camino (2022) HD 1080p Latino

    Borrego: Sal Del Camino (2022) HD 1080p Latino

    2022
    Borrego: Sal Del Camino (2022) HD 1080p Latino

    1h 42m 2022

    Descargar Borrego: Sal Del Camino (2022) HD 1080p Latino. Una joven botánica se traslada a un pequeño...

    Director: Jesse Harris

    Género: Crimen

    Actores: Olivia Trujillo

  • Tren Bala (2022) WEB-DL 4K UHD HDR Latino

    Tren Bala (2022) WEB-DL 4K UHD HDR Latino

    2022
    Tren Bala (2022) WEB-DL 4K UHD HDR Latino

    2h 7m 2022

    Descargar Tren Bala (2022) WEB-DL 4K UHD HDR Latino. El desafortunado asesino "Catarina" está decidido...

    Director: Paul Barry

    Género: 4K HDR

    Actores: Zooey Miyoshi

  • Tren Bala (2022) AMZN WEB-DL 1080p Latino

    Tren Bala (2022) AMZN WEB-DL 1080p Latino

    2022
    Tren Bala (2022) AMZN WEB-DL 1080p Latino

    2h 7m 2022

    Descargar Tren Bala (2022) AMZN WEB-DL 1080p Latino. Cinco asesinos a sueldo se encuentran a bordo de...

    Director: Paul Barry

    Género: Acción

    Actores: Zooey Miyoshi

descargar De Fiesta en las Alturas (2004) [Theatrical] HD 1080p Latino – CMHDD 1080p 1080p gratis, De Fiesta en las Alturas (2004) [Theatrical] HD 1080p Latino – CMHDD 1080p mega 1 link, De Fiesta en las Alturas (2004) [Theatrical] HD 1080p Latino – CMHDD 1080p pelicula completa, descargar De Fiesta en las Alturas (2004) [Theatrical] HD 1080p Latino – CMHDD 1080p gratis en mega.

De Fiesta en las Alturas (2004) [Theatrical] HD 1080p Latino – CMHDD pelicula full hd, De Fiesta en las Alturas (2004) [Theatrical] HD 1080p Latino – CMHDD mega latino, De Fiesta en las Alturas (2004) [Theatrical] HD 1080p Latino – CMHDD 4k latino, De Fiesta en las Alturas (2004) [Theatrical] HD 1080p Latino – CMHDD pelicula completa, De Fiesta en las Alturas (2004) [Theatrical] HD 1080p Latino – CMHDD descargar gratis, descargar De Fiesta en las Alturas (2004) [Theatrical] HD 1080p Latino – CMHDD pelicula latino, De Fiesta en las Alturas (2004) [Theatrical] HD 1080p Latino – CMHDD 1 link mega, De Fiesta en las Alturas (2004) [Theatrical] HD 1080p Latino – CMHDD 1 link google drive, De Fiesta en las Alturas (2004) [Theatrical] HD 1080p Latino – CMHDD hd 1080p latino.
Comentarios 0