×

¿Problemas para descargar con Mozilla, EDGE? Deshabilita la opción "Abrir vinculos en una pestaña nueva" tal como lo muestra ésta imagen.

De Fiesta en las Alturas (2004) [Theatrical] Full HD 1080p Latino – CMHDD

359 vistas

Información de De Fiesta en las Alturas (2004) [Theatrical] Full HD 1080p Latino – CMHDD

Datos de la película

  • Calidad: Full 1080p
  • Audio: Español Latino AC3 2.0 DVD - Ingles AC3 5.1 BLURAY
  • Subtitulos: Español Latino SRT
  • Resolución: 1920x1080p
  • Formato: MKV
  • Codec: H.264
  • Encoder: Dracarys
  • Mediainfo: Clic para Mostrar Datos Ver
  • Format                      : Matroska
    Format version              : Version 4
    File size                   : 4.60 GiB
    Duration                    : 1 h 26 min
    Overall bit rate            : 7 615 kb/s
    Movie name                  : De Fiesta en las Alturas (2004) [Theatrical] Full HD 1080p Latino - CMHDD
    Encoded date                : UTC 2020-05-29 01:44:01
    Writing application         : mkvmerge v46.0.0 ('No Deeper Escape') 64-bit
    Writing library             : libebml v1.3.10 + libmatroska v1.5.2

    Video
    ID                          : 1
    Format                      : AVC
    Format/Info                 : Advanced Video Codec
    Format profile              : High@L4.1
    Format settings             : CABAC / 4 Ref Frames
    Format settings, CABAC      : Yes
    Format settings, Reference  : 4 frames
    Codec ID                    : V_MPEG4/ISO/AVC
    Duration                    : 1 h 26 min
    Bit rate                    : 6 972 kb/s
    Width                       : 1 920 pixels
    Height                      : 1 080 pixels
    Display aspect ratio        : 16:9
    Frame rate mode             : Constant
    Frame rate                  : 23.976 (24000/1001) FPS
    Color space                 : YUV
    Chroma subsampling          : 4:2:0
    Bit depth                   : 8 bits
    Scan type                   : Progressive
    Bits/(Pixel*Frame)          : 0.140
    Stream size                 : 4.21 GiB (92%)
    Writing library             : x264 core 157 r2935 545de2f
    Encoding settings           : cabac=1 / ref=4 / deblock=1:0:0 / analyse=0x3:0x133 / me=tesa / subme=11 / psy=1 / psy_rd=1.00:0.00 / mixed_ref=1 / me_range=24 / chroma_me=1 / trellis=2 / 8x8dct=1 / cqm=0 / deadzone=21,11 / fast_pskip=0 / chroma_qp_offset=-2 / threads=24 / lookahead_threads=6 / sliced_threads=0 / nr=0 / decimate=1 / interlaced=0 / bluray_compat=0 / constrained_intra=0 / bframes=16 / b_pyramid=2 / b_adapt=2 / b_bias=0 / direct=3 / weightb=1 / open_gop=0 / weightp=2 / keyint=240 / keyint_min=24 / scenecut=40 / intra_refresh=0 / rc_lookahead=60 / rc=crf / mbtree=1 / crf=20.0 / qcomp=0.60 / qpmin=0 / qpmax=69 / qpstep=4 / vbv_maxrate=62500 / vbv_bufsize=78125 / crf_max=0.0 / nal_hrd=none / filler=0 / ip_ratio=1.40 / aq=1:1.00
    Default                     : Yes
    Forced                      : No
    Color range                 : Limited
    Color primaries             : BT.709
    Transfer characteristics    : BT.709
    Matrix coefficients         : BT.709

    Audio #1
    ID                          : 2
    Format                      : AC-3
    Format/Info                 : Audio Coding 3
    Commercial name             : Dolby Digital
    Codec ID                    : A_AC3
    Duration                    : 1 h 26 min
    Bit rate mode               : Constant
    Bit rate                    : 192 kb/s
    Channel(s)                  : 2 channels
    Channel layout              : L R
    Sampling rate               : 48.0 kHz
    Frame rate                  : 31.250 FPS (1536 SPF)
    Compression mode            : Lossy
    Delay relative to video     : 16 ms
    Stream size                 : 119 MiB (3%)
    Language                    : Spanish
    Service kind                : Complete Main
    Default                     : Yes
    Forced                      : No

    Audio #2
    ID                          : 3
    Format                      : AC-3
    Format/Info                 : Audio Coding 3
    Commercial name             : Dolby Digital
    Codec ID                    : A_AC3
    Duration                    : 1 h 26 min
    Bit rate mode               : Constant
    Bit rate                    : 448 kb/s
    Channel(s)                  : 6 channels
    Channel layout              : L R C LFE Ls Rs
    Sampling rate               : 48.0 kHz
    Frame rate                  : 31.250 FPS (1536 SPF)
    Compression mode            : Lossy
    Stream size                 : 277 MiB (6%)
    Language                    : English
    Service kind                : Complete Main
    Default                     : No
    Forced                      : No

    Text
    ID                          : 4
    Format                      : UTF-8
    Codec ID                    : S_TEXT/UTF8
    Codec ID/Info               : UTF-8 Plain Text
    Duration                    : 1 h 17 min
    Bit rate                    : 83 b/s
    Count of elements           : 1532
    Stream size                 : 47.3 KiB (0%)
    Language                    : Spanish
    Default                     : No
    Forced                      : No

    Menu
    00:00:00.000                : :Chapter 1
    00:01:55.115                : :Chapter 2
    00:10:20.537                : :Chapter 3
    00:20:02.827                : :Chapter 4
    00:30:03.593                : :Chapter 5
    00:39:14.394                : :Chapter 6
    00:50:52.091                : :Chapter 7
    00:59:03.373                : :Chapter 8
    01:10:52.248                : :Chapter 9
    01:19:48.701                : :Chapter 10

  • Peso: 4.60 GiB

Sinopsis

Cuando Dakwon (Kevin Hart) gana 600 millones de dólares en una demanda contra una compañía por un incidente en el que murió su perro, decide lanzar su propia compañía aérea, exclusiva para pasajeros afroamericanos. Las cosas se desmadran un poco en el vuelo inicial (con Snoop Dogg de piloto), y todavía más cuando una familia de blancos (encabezados por Tom Arnold) entra accidentalmente entre los pasajeros por un desvío de otra aerolínea.

Ficha técnica

Video trailer de la película

Enlaces de descarga

Rip de Bluray

Descargar De Fiesta en las Alturas (2004) [Theatrical] Full HD 1080p Latino – CMHDD




Aportes de DPeliculasHDmega la pass es:dpeliculashdmega.org Aportes de CinemaniaHD la pass es:cinemaniahdd.com

Películas relacionadas

  • Abracadabra 2 (2022) D+ WEB-DL 4K UHD HDR Latino

    Abracadabra 2 (2022) D+ WEB-DL 4K UHD HDR Latino

    2022
    Abracadabra 2 (2022) D+ WEB-DL 4K UHD HDR Latino

    1h 45m 2022

    Descargar Abracadabra 2 (2022) D+ WEB-DL 4K UHD HDR Latino. Han pasado 29 años desde que alguien encendió...

    Director: Anne Fletcher

    Género: 4K HDR

    Actores: Whitney Peak

  • Abracadabra 2 (2022) D+ WEB-DL 1080p Latino

    Abracadabra 2 (2022) D+ WEB-DL 1080p Latino

    2022
    Abracadabra 2 (2022) D+ WEB-DL 1080p Latino

    1h 45m 2022

    Descargar Abracadabra 2 (2022) D+ WEB-DL 1080p Latino. Han pasado 29 años desde que alguien encendió...

    Director: Anne Fletcher

    Género: Comedia

    Actores: Whitney Peak

  • Hot Summer Nights (2017) 4K-SDR WEB-DL 2160p Latino

    Hot Summer Nights (2017) 4K-SDR WEB-DL 2160p Latino

    2018
    Hot Summer Nights (2017) 4K-SDR WEB-DL 2160p Latino

    1h 47m 2018

    Daniel es un tímido adolescente que comienza a vender marihuana, entrando en un mundo tentador pero...

    Director: Stephen W. Moore

    Género: 4K HDR

    Actores: Zack Shires

  • Hot Summer Nights (2017) AMZN WEB-DL 1080p Latino

    Hot Summer Nights (2017) AMZN WEB-DL 1080p Latino

    2018
    Hot Summer Nights (2017) AMZN WEB-DL 1080p Latino

    1h 47m 2018

    Daniel es un tímido adolescente que comienza a vender marihuana, entrando en un mundo tentador pero...

    Director: Stephen W. Moore

    Género: Comedia

    Actores: Zack Shires

descargar De Fiesta en las Alturas (2004) [Theatrical] Full HD 1080p Latino – CMHDD Full 1080p 1080p gratis, De Fiesta en las Alturas (2004) [Theatrical] Full HD 1080p Latino – CMHDD Full 1080p mega 1 link, De Fiesta en las Alturas (2004) [Theatrical] Full HD 1080p Latino – CMHDD Full 1080p pelicula completa, descargar De Fiesta en las Alturas (2004) [Theatrical] Full HD 1080p Latino – CMHDD Full 1080p gratis en mega.

De Fiesta en las Alturas (2004) [Theatrical] Full HD 1080p Latino – CMHDD pelicula full hd, De Fiesta en las Alturas (2004) [Theatrical] Full HD 1080p Latino – CMHDD mega latino, De Fiesta en las Alturas (2004) [Theatrical] Full HD 1080p Latino – CMHDD 4k latino, De Fiesta en las Alturas (2004) [Theatrical] Full HD 1080p Latino – CMHDD pelicula completa, De Fiesta en las Alturas (2004) [Theatrical] Full HD 1080p Latino – CMHDD descargar gratis, descargar De Fiesta en las Alturas (2004) [Theatrical] Full HD 1080p Latino – CMHDD pelicula latino, De Fiesta en las Alturas (2004) [Theatrical] Full HD 1080p Latino – CMHDD 1 link mega, De Fiesta en las Alturas (2004) [Theatrical] Full HD 1080p Latino – CMHDD 1 link google drive, De Fiesta en las Alturas (2004) [Theatrical] Full HD 1080p Latino – CMHDD hd 1080p latino.
Comentarios 0