×

¿Problemas para descargar con Mozilla, EDGE? Deshabilita la opción "Abrir vinculos en una pestaña nueva" tal como lo muestra ésta imagen.

De acá a la China (2019) WEB-DL 1080p Latino

274 vistas

Información de De acá a la China (2019) WEB-DL 1080p Latino

Datos de la película

  • Calidad: WEBDL
  • Audio: Español Latino AC3 2.0
  • Subtitulos: No
  • Resolución: 1920x1080
  • Formato: MKV
  • Codec: H.264
  • Encoder: cinemaniahdd
  • Mediainfo: Clic para Mostrar Datos Ver
  • De aca a la china (2019) WEB-DL 1080p Latino [CNMNHDD].mkv
    Format                      : Matroska
    Format version              : Version 4
    File size                   : 3.93 GiB
    Duration                    : 1 h 31 min
    Overall bit rate mode       : Constant
    Overall bit rate            : 6 163 kb/s
    Movie name                  : De aca a la china (2019) - CinemaniaHDD.Net
    Encoded date                : UTC 2020-08-26 22:45:56
    Writing application         : mkvmerge v46.0.0 ('No Deeper Escape') 64-bit
    Writing library             : libebml v1.3.10 + libmatroska v1.5.2

    Video
    ID                          : 1
    Format                      : AVC
    Format/Info                 : Advanced Video Codec
    Format profile              : Main@L4.1
    Format settings             : CABAC / 3 Ref Frames
    Format settings, CABAC      : Yes
    Format settings, Reference  : 3 frames
    Codec ID                    : V_MPEG4/ISO/AVC
    Duration                    : 1 h 31 min
    Bit rate mode               : Constant
    Bit rate                    : 6 000 kb/s
    Width                       : 1 920 pixels
    Height                      : 1 080 pixels
    Display aspect ratio        : 16:9
    Frame rate mode             : Constant
    Frame rate                  : 29.970 (30000/1001) FPS
    Color space                 : YUV
    Chroma subsampling          : 4:2:0
    Bit depth                   : 8 bits
    Scan type                   : Progressive
    Bits/(Pixel*Frame)          : 0.097
    Stream size                 : 3.77 GiB (96%)
    Title                       : CinemaniaHDD
    Language                    : Spanish
    Default                     : Yes
    Forced                      : No

    Audio
    ID                          : 2
    Format                      : AC-3
    Format/Info                 : Audio Coding 3
    Commercial name             : Dolby Digital
    Codec ID                    : A_AC3
    Duration                    : 1 h 31 min
    Bit rate mode               : Constant
    Bit rate                    : 256 kb/s
    Channel(s)                  : 2 channels
    Channel layout              : L R
    Sampling rate               : 48.0 kHz
    Frame rate                  : 31.250 FPS (1536 SPF)
    Compression mode            : Lossy
    Stream size                 : 167 MiB (4%)
    Title                       : Español latino [CinemaniaHDD]
    Language                    : Spanish
    Service kind                : Complete Main
    Default                     : Yes
    Forced                      : No

     

  • Peso: 3.93 GiB

Sinopsis

En el año 1986, el padre de Facundo tenía un almacén de barrio en Buenos Aires. Todos los vecinos iban a comprar ahí, porque a pesar de que era chico, lo tenía todo. Sin embargo, a inicios de los noventa, con la llegada de los supermercados chinos, el almacén no pudo competir y tuvo que cerrar. Treinta años después, Facundo viaja al otro extremo del planeta con el único objetivo de vengarse abriendo el primer supermercado argentino en China. Conocé la historia de “De Acá a la China”.

Ficha técnica

Video trailer de la película

Enlaces de descarga

Rip de Bluray

Descargar De acá a la China (2019) WEB-DL 1080p Latino




Aportes de DPeliculasHDmega la pass es:dpeliculashdmega.org Aportes de CinemaniaHD la pass es:cinemaniahdd.com
Guardado en : Comedia , Drama

Películas relacionadas

descargar De acá a la China (2019) WEB-DL 1080p Latino WEBDL 1080p gratis, De acá a la China (2019) WEB-DL 1080p Latino WEBDL mega 1 link, De acá a la China (2019) WEB-DL 1080p Latino WEBDL pelicula completa, descargar De acá a la China (2019) WEB-DL 1080p Latino WEBDL gratis en mega.

De acá a la China (2019) WEB-DL 1080p Latino pelicula full hd, De acá a la China (2019) WEB-DL 1080p Latino mega latino, De acá a la China (2019) WEB-DL 1080p Latino 4k latino, De acá a la China (2019) WEB-DL 1080p Latino pelicula completa, De acá a la China (2019) WEB-DL 1080p Latino descargar gratis, descargar De acá a la China (2019) WEB-DL 1080p Latino pelicula latino, De acá a la China (2019) WEB-DL 1080p Latino 1 link mega, De acá a la China (2019) WEB-DL 1080p Latino 1 link google drive, De acá a la China (2019) WEB-DL 1080p Latino hd 1080p latino.
Comentarios 0