×

¿Problemas para descargar con Mozilla, EDGE? Deshabilita la opción "Abrir vinculos en una pestaña nueva" tal como lo muestra ésta imagen.

DC Liga De Supermascotas (2022) HD 1080p Latino

496 vistas

Información de DC Liga De Supermascotas (2022) HD 1080p Latino

Datos de la película

  • Calidad: 1080p
  • Audio: Español Latino AC3 5.1 BLURAY - Ingles AC3 5.1 BLURAY
  • Subtitulos: Español Latino SRT- FORZADOS SRT
  • Resolución: 1920x804p
  • Formato: MKV
  • Codec: H.264
  • Encoder: Melkor
  • Mediainfo: Clic para Mostrar Datos Ver
  • DC Liga de Supermascotas (2022) HD 1080p Latino.mkv
    Format                      : Matroska
    Format version              : Version 4
    File size                   : 3.23 GiB
    Duration                    : 1 h 45 min
    Overall bit rate            : 4 379 kb/s
    Movie name                  : DC League of Super-Pets (2022) CinemaniaHDD.Net
    Encoded date                : UTC 2022-10-05 04:17:54
    Writing application         : mkvmerge v56.1.0 ('My Friend') 64-bit
    Writing library             : libebml v1.4.2 + libmatroska v1.6.4
    Attachments                 : CINEMANIAHD.png

    Video
    ID                          : 1
    Format                      : AVC
    Format/Info                 : Advanced Video Codec
    Format profile              : High@L4.1
    Format settings             : CABAC / 5 Ref Frames
    Format settings, CABAC      : Yes
    Format settings, Reference  : 5 frames
    Codec ID                    : V_MPEG4/ISO/AVC
    Duration                    : 1 h 45 min
    Bit rate                    : 3 500 kb/s
    Width                       : 1 920 pixels
    Height                      : 804 pixels
    Display aspect ratio        : 2.40:1
    Frame rate mode             : Constant
    Frame rate                  : 23.976 (24000/1001) FPS
    Color space                 : YUV
    Chroma subsampling          : 4:2:0
    Bit depth                   : 8 bits
    Scan type                   : Progressive
    Bits/(Pixel*Frame)          : 0.095
    Stream size                 : 2.56 GiB (79%)
    Title                       : HD1080p [CinemaniaHDD]
    Writing library             : x264 core 163 r3059 b684ebe0
    Encoding settings           : cabac=1 / ref=5 / deblock=1:1:1 / analyse=0x3:0x133 / me=umh / subme=9 / psy=1 / psy_rd=0.40:0.00 / mixed_ref=1 / me_range=16 / chroma_me=1 / trellis=2 / 8x8dct=1 / cqm=0 / deadzone=21,11 / fast_pskip=1 / chroma_qp_offset=-2 / threads=24 / lookahead_threads=2 / sliced_threads=0 / nr=0 / decimate=1 / interlaced=0 / bluray_compat=0 / constrained_intra=0 / bframes=5 / b_pyramid=2 / b_adapt=2 / b_bias=0 / direct=3 / weightb=1 / open_gop=0 / weightp=2 / keyint=240 / keyint_min=24 / scenecut=40 / intra_refresh=0 / rc_lookahead=60 / rc=abr / mbtree=1 / bitrate=3500 / ratetol=1.0 / qcomp=0.60 / qpmin=0 / qpmax=69 / qpstep=4 / vbv_maxrate=62500 / vbv_bufsize=78125 / nal_hrd=none / filler=0 / ip_ratio=1.40 / aq=1:0.60
    Default                     : Yes
    Forced                      : Yes
    Color range                 : Limited
    Color primaries             : BT.709
    Transfer characteristics    : BT.709
    Matrix coefficients         : BT.709

    Audio #1
    ID                          : 2
    ID in the original source m : 4357 (0x1105)
    Format                      : AC-3
    Format/Info                 : Audio Coding 3
    Commercial name             : Dolby Digital
    Codec ID                    : A_AC3
    Duration                    : 1 h 45 min
    Bit rate mode               : Constant
    Bit rate                    : 448 kb/s
    Channel(s)                  : 6 channels
    Channel layout              : L R C LFE Ls Rs
    Sampling rate               : 48.0 kHz
    Frame rate                  : 31.250 FPS (1536 SPF)
    Compression mode            : Lossy
    Delay relative to video     : -5 ms
    Stream size                 : 338 MiB (10%)
    Title                       : Español Latino [CinemaniaHDD]
    Language                    : Spanish
    Service kind                : Complete Main
    Default                     : Yes
    Forced                      : Yes
    Original source medium      : Blu-ray

    Audio #2
    ID                          : 3
    Format                      : AC-3
    Format/Info                 : Audio Coding 3
    Commercial name             : Dolby Digital
    Codec ID                    : A_AC3
    Duration                    : 1 h 45 min
    Bit rate mode               : Constant
    Bit rate                    : 448 kb/s
    Channel(s)                  : 6 channels
    Channel layout              : L R C LFE Ls Rs
    Sampling rate               : 48.0 kHz
    Frame rate                  : 31.250 FPS (1536 SPF)
    Compression mode            : Lossy
    Delay relative to video     : -5 ms
    Stream size                 : 338 MiB (10%)
    Title                       : Ingles [CinemaniaHDD]
    Language                    : English
    Service kind                : Complete Main
    Default                     : No
    Forced                      : No

    Text #1
    ID                          : 4
    Format                      : UTF-8
    Codec ID                    : S_TEXT/UTF8
    Codec ID/Info               : UTF-8 Plain Text
    Duration                    : 1 h 28 min
    Bit rate                    : 1 b/s
    Count of elements           : 37
    Stream size                 : 1.10 KiB (0%)
    Title                       : Forzados-SRT [CinemaniaHDD]
    Language                    : Spanish
    Default                     : No
    Forced                      : No

    Text #2
    ID                          : 5
    Format                      : UTF-8
    Codec ID                    : S_TEXT/UTF8
    Codec ID/Info               : UTF-8 Plain Text
    Duration                    : 1 h 43 min
    Bit rate                    : 61 b/s
    Count of elements           : 1487
    Stream size                 : 46.8 KiB (0%)
    Title                       : Español-SRT [CinemaniaHDD]
    Language                    : Spanish
    Default                     : No
    Forced                      : No

    Text #3
    ID                          : 6
    Format                      : UTF-8
    Codec ID                    : S_TEXT/UTF8
    Codec ID/Info               : UTF-8 Plain Text
    Duration                    : 1 h 44 min
    Bit rate                    : 58 b/s
    Count of elements           : 1519
    Stream size                 : 44.9 KiB (0%)
    Title                       : Ingles-SRT [CinemaniaHDD]
    Language                    : English
    Default                     : No
    Forced                      : No

    Menu
    00:00:00.000                : Capítulo 01
    00:09:55.553                : Capítulo 02
    00:17:24.543                : Capítulo 03
    00:27:24.517                : Capítulo 04
    00:36:40.990                : Capítulo 05
    00:46:04.470                : Capítulo 06
    00:54:03.573                : Capítulo 07
    01:03:23.466                : Capítulo 08
    01:12:20.336                : Capítulo 09
    01:22:15.263                : Capítulo 10
    01:32:04.894                : Capítulo 11
    01:38:50.591                : Capítulo 12

  • Peso: 3.23 GiB

Sinopsis

Descargar DC Liga De Supermascotas (2022) HD 1080p Latino. Krypto el Superperro y Superman son amigos inseparables que comparten los mismos superpoderes y luchan juntos contra el crimen en Metrópolis. Cuando Superman y el resto de la Liga de la Justicia son secuestrados, Krypto debe convencer a un variopinto grupo de un albergue –Ace el sabueso, PB la cerdita barrigona, Merton la tortuga y Chip la ardilla– de dominar sus nuevos poderes y ayudarlo a rescatar a los superhéroes.

Ficha técnica

Video trailer de la película

Enlaces de descarga

Rip de Bluray

Descargar DC Liga De Supermascotas (2022) HD 1080p Latino




Aportes de DPeliculasHDmega la pass es:dpeliculashdmega.org Aportes de CinemaniaHD la pass es:cinemaniahdd.com Aportes recientes:cinemaniahdd.net

Películas relacionadas

  • Find Me Falling (2024) NF WEB-DL 1080p Latino

    Find Me Falling (2024) NF WEB-DL 1080p Latino

    2024
    Find Me Falling (2024) NF WEB-DL 1080p Latino

    0h 0m 2024

    Descargar Find Me Falling (2024) NF WEB-DL 1080p Latino. Tras el fracaso del disco con el que pensaba...

    Director: Stelana Kliris

    Género: Comedia

    Actores: Yiola Klitou

  • Goyo (2024) NF WEB-DL 1080p Latino

    Goyo (2024) NF WEB-DL 1080p Latino

    2024
    Goyo (2024) NF WEB-DL 1080p Latino

    1h 47m 2024

    Descargar Goyo (2024) NF WEB-DL 1080p Latino. Goyo es un hombre con Asperger, fanático de Van Gogh,...

    Director: Pablo Discianni

    Género: Comedia

    Actores: Walter Fabian Andrade

  • Inmaculada (2024) HD 1080p Latino

    Inmaculada (2024) HD 1080p Latino

    2024
    Inmaculada (2024) HD 1080p Latino

    1h 29m 2024

    Descargar Inmaculada (2024) HD 1080p Latino. Cecilia, una mujer de fe devota, recibe una calurosa bienvenida...

    Director: Valentina Scuro

    Género: HD 1080p

    Actores: Viviane Florentine Nicolai

  • Cobra Kai (2024) Temporada 6 NF WEB-DL 1080p Latino

    Cobra Kai (2024) Temporada 6 NF WEB-DL 1080p Latino

    2018
    Cobra Kai (2024) Temporada 6 NF WEB-DL 1080p Latino

    0h 0m 2018

    Descargar Cobra Kai (2024) Temporada 6 NF WEB-DL 1080p Latino. Cobra Kai tiene lugar treinta y cuatro...

    Director: Josh Heald

    Género: Action & Adventure

    Actores: Xolo Mariduena

descargar DC Liga De Supermascotas (2022) HD 1080p Latino 1080p 1080p gratis, DC Liga De Supermascotas (2022) HD 1080p Latino 1080p mega 1 link, DC Liga De Supermascotas (2022) HD 1080p Latino 1080p pelicula completa, descargar DC Liga De Supermascotas (2022) HD 1080p Latino 1080p gratis en mega.

DC Liga De Supermascotas (2022) HD 1080p Latino pelicula full hd, DC Liga De Supermascotas (2022) HD 1080p Latino mega latino, DC Liga De Supermascotas (2022) HD 1080p Latino 4k latino, DC Liga De Supermascotas (2022) HD 1080p Latino pelicula completa, DC Liga De Supermascotas (2022) HD 1080p Latino descargar gratis, descargar DC Liga De Supermascotas (2022) HD 1080p Latino pelicula latino, DC Liga De Supermascotas (2022) HD 1080p Latino 1 link mega, DC Liga De Supermascotas (2022) HD 1080p Latino 1 link google drive, DC Liga De Supermascotas (2022) HD 1080p Latino hd 1080p latino.
Comentarios 0