×

¿Problemas para descargar con Mozilla, EDGE? Deshabilita la opción "Abrir vinculos en una pestaña nueva" tal como lo muestra ésta imagen.

Days of Thunder (1990) REMUX 4K HDR Latino – CMHDD

188 vistas

Información de Days of Thunder (1990) REMUX 4K HDR Latino – CMHDD

Datos de la película

  • Calidad: 4K HDR
  • Audio: Español Latino AC3 5.1 BLURAY - Ingles DTS 5.1 BLURAY
  • Subtitulos: Español Latino PGS
  • Resolución: 38402160p
  • Formato: MKV
  • Codec: H.264
  • Encoder: Dracarys
  • Mediainfo: Clic para Mostrar Datos Ver
  • Format                      : Matroska
    Format version              : Version 4
    File size                   : 50.9 GiB
    Duration                    : 1 h 47 min
    Overall bit rate mode       : Variable
    Overall bit rate            : 67.9 Mb/s
    Movie name                  : Days of Thunder (1990) REMUX 4K HDR Latino - CMHDD
    Encoded date                : UTC 2023-05-09 17:57:04
    Writing application         : mkvmerge v47.0.0 ('Black Flag') 64-bit
    Writing library             : libebml v1.3.10 + libmatroska v1.5.2

    Video
    ID                          : 1
    ID in the original source m : 4113 (0x1011)
    Format                      : HEVC
    Format/Info                 : High Efficiency Video Coding
    Format profile              : Main 10@L5.1@High
    HDR format                  : SMPTE ST 2086, HDR10 compatible
    Codec ID                    : V_MPEGH/ISO/HEVC
    Duration                    : 1 h 47 min
    Bit rate                    : 62.9 Mb/s
    Width                       : 3 840 pixels
    Height                      : 2 160 pixels
    Display aspect ratio        : 16:9
    Frame rate mode             : Constant
    Frame rate                  : 23.976 (24000/1001) FPS
    Color space                 : YUV
    Chroma subsampling          : 4:2:0 (Type 2)
    Bit depth                   : 10 bits
    Bits/(Pixel*Frame)          : 0.316
    Stream size                 : 47.1 GiB (93%)
    Language                    : English
    Default                     : No
    Forced                      : No
    Color range                 : Limited
    Color primaries             : BT.2020
    Transfer characteristics    : PQ
    Matrix coefficients         : BT.2020 non-constant
    Mastering display color pri : Display P3
    Mastering display luminance : min: 0.0001 cd/m2, max: 1000 cd/m2
    Original source medium      : Blu-ray

    Audio #1
    ID                          : 2
    Format                      : DTS XLL
    Format/Info                 : Digital Theater Systems
    Commercial name             : DTS-HD Master Audio
    Codec ID                    : A_DTS
    Duration                    : 1 h 47 min
    Bit rate mode               : Variable
    Bit rate                    : 3 779 kb/s
    Channel(s)                  : 6 channels
    Channel layout              : C L R Ls Rs LFE
    Sampling rate               : 48.0 kHz
    Frame rate                  : 93.750 FPS (512 SPF)
    Bit depth                   : 24 bits
    Compression mode            : Lossless
    Stream size                 : 2.83 GiB (6%)
    Title                       : DTS-HD MA 5.1
    Language                    : English
    Default                     : No
    Forced                      : No

    Audio #2
    ID                          : 3
    ID in the original source m : 4352 (0x1100)
    Format                      : AC-3
    Format/Info                 : Audio Coding 3
    Commercial name             : Dolby Digital
    Codec ID                    : A_AC3
    Duration                    : 1 h 47 min
    Bit rate mode               : Constant
    Bit rate                    : 640 kb/s
    Channel(s)                  : 6 channels
    Channel layout              : L R C LFE Ls Rs
    Sampling rate               : 48.0 kHz
    Frame rate                  : 31.250 FPS (1536 SPF)
    Compression mode            : Lossy
    Stream size                 : 491 MiB (1%)
    Title                       : DD 5.1
    Language                    : English
    Service kind                : Complete Main
    Default                     : No
    Forced                      : No
    Original source medium      : Blu-ray

    Audio #3
    ID                          : 4
    ID in the original source m : 4355 (0x1103)
    Format                      : AC-3
    Format/Info                 : Audio Coding 3
    Commercial name             : Dolby Digital
    Codec ID                    : A_AC3
    Duration                    : 1 h 47 min
    Bit rate mode               : Constant
    Bit rate                    : 640 kb/s
    Channel(s)                  : 6 channels
    Channel layout              : L R C LFE Ls Rs
    Sampling rate               : 48.0 kHz
    Frame rate                  : 31.250 FPS (1536 SPF)
    Compression mode            : Lossy
    Stream size                 : 491 MiB (1%)
    Title                       : DD 5.1
    Language                    : Spanish
    Service kind                : Complete Main
    Default                     : Yes
    Forced                      : No
    Original source medium      : Blu-ray

    Text
    ID                          : 5
    ID in the original source m : 4775 (0x12A7)
    Format                      : PGS
    Muxing mode                 : zlib
    Codec ID                    : S_HDMV/PGS
    Codec ID/Info               : Picture based subtitle format used on BDs/HD-DVDs
    Duration                    : 1 h 43 min
    Bit rate                    : 158 b/s
    Frame rate                  : 0.002 FPS
    Count of elements           : 12
    Stream size                 : 121 KiB (0%)
    Language                    : Spanish
    Default                     : No
    Forced                      : No
    Original source medium      : Blu-ray

    Menu
    00:00:00.000                : en:Chapter 01
    00:03:39.260                : en:Chapter 02
    00:05:36.878                : en:Chapter 03
    00:12:51.812                : en:Chapter 04
    00:14:36.041                : en:Chapter 05
    00:18:27.564                : en:Chapter 06
    00:24:49.779                : en:Chapter 07
    00:31:40.815                : en:Chapter 08
    00:36:25.975                : en:Chapter 09
    00:41:13.471                : en:Chapter 10
    00:45:05.369                : en:Chapter 11
    00:51:03.185                : en:Chapter 12
    00:53:32.584                : en:Chapter 13
    00:56:15.413                : en:Chapter 14
    01:01:38.444                : en:Chapter 15
    01:04:12.723                : en:Chapter 16
    01:11:31.954                : en:Chapter 17
    01:15:22.434                : en:Chapter 18
    01:20:36.957                : en:Chapter 19
    01:27:29.244                : en:Chapter 20
    01:33:12.670                : en:Chapter 21
    01:38:40.164                : en:Chapter 22
    01:43:11.018                : en:Chapter 23

  • Peso: 50.9 GiB

Sinopsis

Cole Trickle es un joven temerario que busca en la emoción de pilotar un bólido la audacia que le haga perder todos los miedos. Trickle entra con buen pie en el complicado mundo de las carreras. Se sabe rodear de un buen equipo y cuenta además con la ayuda inestimable de Harry, un verdadero amigo que sabe estimular a la joven promesa hasta hacerle alcanzar la gloria.

Ficha técnica

Video trailer de la película

Enlaces de descarga

Rip de Bluray

Descargar Days of Thunder (1990) REMUX 4K HDR Latino – CMHDD


Aportes de DPeliculasHDmega la pass es:dpeliculashdmega.org Aportes de CinemaniaHD la pass es:cinemaniahdd.com Aportes recientes:cinemaniahdd.net
Guardado en : Acción , Aventura , Drama

Películas relacionadas

descargar Days of Thunder (1990) REMUX 4K HDR Latino – CMHDD 4K HDR 1080p gratis, Days of Thunder (1990) REMUX 4K HDR Latino – CMHDD 4K HDR mega 1 link, Days of Thunder (1990) REMUX 4K HDR Latino – CMHDD 4K HDR pelicula completa, descargar Days of Thunder (1990) REMUX 4K HDR Latino – CMHDD 4K HDR gratis en mega.

Days of Thunder (1990) REMUX 4K HDR Latino – CMHDD pelicula full hd, Days of Thunder (1990) REMUX 4K HDR Latino – CMHDD mega latino, Days of Thunder (1990) REMUX 4K HDR Latino – CMHDD 4k latino, Days of Thunder (1990) REMUX 4K HDR Latino – CMHDD pelicula completa, Days of Thunder (1990) REMUX 4K HDR Latino – CMHDD descargar gratis, descargar Days of Thunder (1990) REMUX 4K HDR Latino – CMHDD pelicula latino, Days of Thunder (1990) REMUX 4K HDR Latino – CMHDD 1 link mega, Days of Thunder (1990) REMUX 4K HDR Latino – CMHDD 1 link google drive, Days of Thunder (1990) REMUX 4K HDR Latino – CMHDD hd 1080p latino.
Comentarios 0