×

¿Problemas para descargar con Mozilla, EDGE? Deshabilita la opción "Abrir vinculos en una pestaña nueva" tal como lo muestra ésta imagen.

Days of the Bagnold Summer (2020) HD 1080p Latino

245 vistas

Información de Days of the Bagnold Summer (2020) HD 1080p Latino

Datos de la película

  • Calidad: 1080p
  • Audio: Se especifica abajo de la Sinopsis
  • Subtitulos: Español Latino SRT- FORZADOS SRT
  • Resolución: 1920x804
  • Formato: MKV
  • Codec: H.264
  • Encoder: cinemaniahdd
  • Mediainfo: Clic para Mostrar Datos Ver
  • Days of the Bagnold Summer (2020) HD 1080p Latino [CNMNHDD].mkv
    Format                      : Matroska
    Format version              : Version 4
    File size                   : 2.50 GiB
    Duration                    : 1 h 25 min
    Overall bit rate            : 4 168 kb/s
    Movie name                  : Days of the Bagnold Summer (2020) HD - CinemaniaHDD.Net
    Encoded date                : UTC 2021-02-03 01:38:22
    Writing application         : mkvmerge v51.0.0 ('I Wish') 64-bit
    Writing library             : libebml v1.4.0 + libmatroska v1.6.2

    Video
    ID                          : 1
    Format                      : AVC
    Format/Info                 : Advanced Video Codec
    Format profile              : Main@L4
    Format settings             : CABAC / 5 Ref Frames
    Format settings, CABAC      : Yes
    Format settings, Reference  : 5 frames
    Codec ID                    : V_MPEG4/ISO/AVC
    Duration                    : 1 h 25 min
    Bit rate                    : 3 500 kb/s
    Width                       : 1 920 pixels
    Height                      : 804 pixels
    Display aspect ratio        : 2.40:1
    Frame rate mode             : Constant
    Frame rate                  : 24.000 FPS
    Color space                 : YUV
    Chroma subsampling          : 4:2:0
    Bit depth                   : 8 bits
    Scan type                   : Progressive
    Bits/(Pixel*Frame)          : 0.094
    Stream size                 : 2.08 GiB (83%)
    Title                       : CinemaniaHDD
    Writing library             : x264 core 157 r2935 545de2f
    Encoding settings           : cabac=1 / ref=5 / deblock=1:0:0 / analyse=0x1:0x111 / me=hex / subme=8 / psy=1 / psy_rd=1.00:0.00 / mixed_ref=1 / me_range=16 / chroma_me=1 / trellis=2 / 8x8dct=0 / cqm=0 / deadzone=21,11 / fast_pskip=1 / chroma_qp_offset=-2 / threads=24 / lookahead_threads=4 / sliced_threads=0 / nr=0 / decimate=1 / interlaced=0 / bluray_compat=0 / constrained_intra=0 / bframes=3 / b_pyramid=2 / b_adapt=1 / b_bias=0 / direct=3 / weightb=1 / open_gop=0 / weightp=2 / keyint=240 / keyint_min=24 / scenecut=40 / intra_refresh=0 / rc_lookahead=50 / rc=abr / mbtree=1 / bitrate=3500 / ratetol=1.0 / qcomp=0.60 / qpmin=0 / qpmax=69 / qpstep=4 / vbv_maxrate=20000 / vbv_bufsize=25000 / nal_hrd=none / filler=0 / ip_ratio=1.40 / aq=1:1.00
    Default                     : Yes
    Forced                      : No
    Color range                 : Limited
    Color primaries             : BT.709
    Transfer characteristics    : BT.709
    Matrix coefficients         : BT.709

    Audio #1
    ID                          : 2
    Format                      : AC-3
    Format/Info                 : Audio Coding 3
    Commercial name             : Dolby Digital
    Codec ID                    : A_AC3
    Duration                    : 1 h 25 min
    Bit rate mode               : Constant
    Bit rate                    : 256 kb/s
    Channel(s)                  : 2 channels
    Channel layout              : L R
    Sampling rate               : 48.0 kHz
    Frame rate                  : 31.250 FPS (1536 SPF)
    Compression mode            : Lossy
    Delay relative to video     : -5 ms
    Stream size                 : 157 MiB (6%)
    Title                       : Español latino [CinemaniaHDD]
    Language                    : Spanish
    Service kind                : Complete Main
    Default                     : Yes
    Forced                      : No

    Audio #2
    ID                          : 3
    Format                      : AC-3
    Format/Info                 : Audio Coding 3
    Commercial name             : Dolby Digital
    Codec ID                    : A_AC3
    Duration                    : 1 h 25 min
    Bit rate mode               : Constant
    Bit rate                    : 448 kb/s
    Channel(s)                  : 6 channels
    Channel layout              : L R C LFE Ls Rs
    Sampling rate               : 48.0 kHz
    Frame rate                  : 31.250 FPS (1536 SPF)
    Compression mode            : Lossy
    Delay relative to video     : -5 ms
    Stream size                 : 275 MiB (11%)
    Title                       : Inglés  [CinemaniaHDD]
    Language                    : English
    Service kind                : Complete Main
    Default                     : No
    Forced                      : No

    Text #1
    ID                          : 4
    Format                      : UTF-8
    Codec ID                    : S_TEXT/UTF8
    Codec ID/Info               : UTF-8 Plain Text
    Duration                    : 1 h 10 min
    Bit rate                    : 0 b/s
    Count of elements           : 18
    Stream size                 : 476 Bytes (0%)
    Title                       : Forzados [CinemaniaHDD]
    Language                    : Spanish
    Default                     : Yes
    Forced                      : Yes

    Text #2
    ID                          : 5
    Format                      : UTF-8
    Codec ID                    : S_TEXT/UTF8
    Codec ID/Info               : UTF-8 Plain Text
    Duration                    : 1 h 19 min
    Bit rate                    : 58 b/s
    Count of elements           : 1255
    Stream size                 : 34.3 KiB (0%)
    Title                       : Español latino [CinemaniaHDD]
    Language                    : Spanish
    Default                     : No
    Forced                      : No

    Menu
    00:00:00.000                : en:00:00:00.000
    00:07:40.833                : en:00:07:40.833
    00:15:36.292                : en:00:15:36.292
    00:22:31.042                : en:00:22:31.042
    00:30:13.917                : en:00:30:13.917
    00:37:55.042                : en:00:37:55.042
    00:45:22.417                : en:00:45:22.417
    00:52:30.958                : en:00:52:30.958
    01:00:52.000                : en:01:00:52.000
    01:08:07.625                : en:01:08:07.625
    01:17:38.667                : en:01:17:38.667
    01:21:26.667                : en:01:21:26.667

     

  • Peso: 2.50 GiB

Sinopsis

Los planes de vacaciones de un adolescente amante del heavy-metal se echan a perder a ultimo momento, lo que significa que debe pasar todo el Verano con la persona que más lo molesta: su mama.

Español Latino AC3 2.0 WEB-DL – Ingles AC3 5.1 BD

Ficha técnica

Video trailer de la película

Enlaces de descarga

Rip de Bluray

Descargar Days of the Bagnold Summer (2020) HD 1080p Latino




Aportes de DPeliculasHDmega la pass es:dpeliculashdmega.org Aportes de CinemaniaHD la pass es:cinemaniahdd.com
Guardado en : Comedia , HD 1080p

Películas relacionadas

  • Jaula Mental (2022) HD 1080p Latino

    Jaula Mental (2022) HD 1080p Latino

    2022
    Jaula Mental (2022) HD 1080p Latino

    1h 47m 2022

    Descargar Jaula Mental (2022) HD 1080p Latino. Cuando un asesino que imita otros crímenes comienza a...

    Director: Mauro Borrelli

    Género: Crimen

    Actores: Victoria Fox

  • Transfusion (2023) HD 1080p Latino

    Transfusion (2023) HD 1080p Latino

    2023
    Transfusion (2023) HD 1080p Latino

    1h 45m 2023

    Descargar Transfusion (2023) HD 1080p Latino. Un antiguo agente de las Fuerzas Especiales se ve empujado...

    Director: Matt Nable

    Género: Crimen

    Actores: Trystan Go

  • Gladiador (2000) EXTENDED CUT 1080p Latino

    Gladiador (2000) EXTENDED CUT 1080p Latino

    2000
    Gladiador (2000) EXTENDED CUT 1080p Latino

    2h 35m 2000

    Gladiador (2000) EXTENDED CUT 1080p Latino. Máximo, General de las Legiones Romanas, es querido por...

    Director: Ridley Scott

    Género: Acción

    Actores: Tony Curran

  • El discurso del Rey (2010) 1080p Latino

    El discurso del Rey (2010) 1080p Latino

    2010
    El discurso del Rey (2010) 1080p Latino

    1h 58m 2010

    Descargar El discurso del Rey (2010) 1080p Latino. El duque de York se convirtió en rey de Gran Bretaña...

    Director: Tom Hooper

    Género: Drama

    Actores: Tony Earnshaw

descargar Days of the Bagnold Summer (2020) HD 1080p Latino 1080p 1080p gratis, Days of the Bagnold Summer (2020) HD 1080p Latino 1080p mega 1 link, Days of the Bagnold Summer (2020) HD 1080p Latino 1080p pelicula completa, descargar Days of the Bagnold Summer (2020) HD 1080p Latino 1080p gratis en mega.

Days of the Bagnold Summer (2020) HD 1080p Latino pelicula full hd, Days of the Bagnold Summer (2020) HD 1080p Latino mega latino, Days of the Bagnold Summer (2020) HD 1080p Latino 4k latino, Days of the Bagnold Summer (2020) HD 1080p Latino pelicula completa, Days of the Bagnold Summer (2020) HD 1080p Latino descargar gratis, descargar Days of the Bagnold Summer (2020) HD 1080p Latino pelicula latino, Days of the Bagnold Summer (2020) HD 1080p Latino 1 link mega, Days of the Bagnold Summer (2020) HD 1080p Latino 1 link google drive, Days of the Bagnold Summer (2020) HD 1080p Latino hd 1080p latino.
Comentarios 0