×

¿Problemas para descargar con Mozilla, EDGE? Deshabilita la opción "Abrir vinculos en una pestaña nueva" tal como lo muestra ésta imagen.

Dave (1993) REMUX 1080p Latino – CMHDD

358 vistas

Información de Dave (1993) REMUX 1080p Latino – CMHDD

Datos de la película

  • Calidad: Full 1080p
  • Audio: Se especifica abajo de la Sinopsis
  • Subtitulos: Español Latino PGS
  • Resolución: 1920x1080p
  • Formato: MKV
  • Codec: H.264
  • Encoder:
  • Mediainfo: Clic para Mostrar Datos Ver
  • Format                      : Matroska
    Format version              : Version 4
    File size                   : 15.4 GiB
    Duration                    : 1 h 49 min
    Overall bit rate mode       : Variable
    Overall bit rate            : 20.1 Mb/s
    Movie name                  : Dave (1993) REMUX 1080p Latino - CMHDD
    Encoded date                : UTC 2022-01-30 19:44:14
    Writing application         : mkvmerge v17.0.0 ('Be Ur Friend') 64-bit
    Writing library             : libebml v1.3.5 + libmatroska v1.4.8

    Video
    ID                          : 1
    Format                      : AVC
    Format/Info                 : Advanced Video Codec
    Format profile              : High@L4.1
    Format settings             : CABAC / 2 Ref Frames
    Format settings, CABAC      : Yes
    Format settings, Reference  : 2 frames
    Codec ID                    : V_MPEG4/ISO/AVC
    Duration                    : 1 h 49 min
    Bit rate mode               : Variable
    Bit rate                    : 17.8 Mb/s
    Width                       : 1 920 pixels
    Height                      : 1 080 pixels
    Display aspect ratio        : 16:9
    Frame rate mode             : Constant
    Frame rate                  : 23.976 (24000/1001) FPS
    Color space                 : YUV
    Chroma subsampling          : 4:2:0
    Bit depth                   : 8 bits
    Scan type                   : Progressive
    Bits/(Pixel*Frame)          : 0.358
    Stream size                 : 13.7 GiB (89%)
    Default                     : Yes
    Forced                      : No

    Audio #1
    ID                          : 2
    Format                      : DTS XLL
    Format/Info                 : Digital Theater Systems
    Commercial name             : DTS-HD Master Audio
    Codec ID                    : A_DTS
    Duration                    : 1 h 49 min
    Bit rate mode               : Variable
    Bit rate                    : 2 088 kb/s
    Channel(s)                  : 2 channels
    Sampling rate               : 48.0 kHz
    Frame rate                  : 93.750 FPS (512 SPF)
    Bit depth                   : 24 bits
    Compression mode            : Lossless
    Stream size                 : 1.60 GiB (10%)
    Language                    : English
    Default                     : No
    Forced                      : No

    Audio #2
    ID                          : 3
    Format                      : AC-3
    Format/Info                 : Audio Coding 3
    Commercial name             : Dolby Digital
    Format settings             : Dolby Surround
    Codec ID                    : A_AC3
    Duration                    : 1 h 49 min
    Bit rate mode               : Constant
    Bit rate                    : 192 kb/s
    Channel(s)                  : 2 channels
    Channel layout              : L R
    Sampling rate               : 48.0 kHz
    Frame rate                  : 31.250 FPS (1536 SPF)
    Compression mode            : Lossy
    Stream size                 : 151 MiB (1%)
    Language                    : Spanish
    Service kind                : Complete Main
    Default                     : Yes
    Forced                      : No

    Text
    ID                          : 4
    Format                      : PGS
    Muxing mode                 : zlib
    Codec ID                    : S_HDMV/PGS
    Codec ID/Info               : Picture based subtitle format used on BDs/HD-DVDs
    Duration                    : 1 h 48 min
    Bit rate                    : 30.6 kb/s
    Count of elements           : 2866
    Stream size                 : 23.8 MiB (0%)
    Language                    : Spanish
    Default                     : No
    Forced                      : No

    Menu
    00:00:00.000                : en:Chapter 1
    00:03:17.322                : en:Chapter 2
    00:05:19.569                : en:Chapter 3
    00:07:23.276                : en:Chapter 4
    00:08:56.494                : en:Chapter 5
    00:15:33.057                : en:Chapter 6
    00:19:03.767                : en:Chapter 7
    00:25:33.198                : en:Chapter 8
    00:33:48.776                : en:Chapter 9
    00:36:43.701                : en:Chapter 10
    00:40:51.157                : en:Chapter 11
    00:43:27.813                : en:Chapter 12
    00:48:47.341                : en:Chapter 13
    00:52:33.233                : en:Chapter 14
    00:55:01.464                : en:Chapter 15
    01:01:55.253                : en:Chapter 16
    01:06:06.754                : en:Chapter 17
    01:12:36.643                : en:Chapter 18
    01:16:53.066                : en:Chapter 19
    01:22:12.385                : en:Chapter 20
    01:24:11.004                : en:Chapter 21
    01:26:23.720                : en:Chapter 22
    01:32:25.039                : en:Chapter 23
    01:38:42.958                : en:Chapter 24
    01:41:19.990                : en:Chapter 25
    01:43:19.276                : en:Chapter 26
    01:45:32.743                : en:Chapter 27

  • Peso: 15.4 GiB

Sinopsis

Dave Kovic (Kevin Kline) es un sencillo ciudadano que guarda un extraordinario parecido con el presidente de los Estados Unidos Bill Mitchell. Cuando un repentino ataque incapacita al presidente, sus asesores políticos deciden que Dave lo suplante, dando por supuesto que será un hombre fácil de manipular. Por otra parte, la esposa del presidente (Sigourney Weaver), que ignora la situación, encuentra tan anómala la conducta de su supuesto marido que empieza a sospechar.

 

Latino: AC3 2.0  –  Inglés: DTS 2.0

Ficha técnica

Video trailer de la película

Enlaces de descarga

Rip de Bluray

Descargar Dave (1993) REMUX 1080p Latino – CMHDD


Aportes de DPeliculasHDmega la pass es:dpeliculashdmega.org Aportes de CinemaniaHD la pass es:cinemaniahdd.com
Guardado en : Comedia

Películas relacionadas

  • Hombre de familia (2000) REMUX 1080p Latino

    Hombre de familia (2000) REMUX 1080p Latino

    2000
    Hombre de familia (2000) REMUX 1080p Latino

    2h 1m 2000

    Descargar Hombre de familia (2000) REMUX 1080p Latino. Jack Campbell es un egocéntrico broker de Wall...

    Director: Robert Schroer

    Género: Comedia

    Actores: Wass Stevens

  • Te Amo Brother (2009) REMUX 1080p Latino

    Te Amo Brother (2009) REMUX 1080p Latino

    2009
    Te Amo Brother (2009) REMUX 1080p Latino

    1h 45m 2009

    Descargar Te Amo Brother (2009) REMUX 1080p Latino. Peter Klaven (Paul Rudd) es un joven que vive muy...

    Director: Scott Robertson

    Género: Comedia

    Actores: Vicki Davis

  • Asústame (2020) HD 1080p Latino

    Asústame (2020) HD 1080p Latino

    2020
    Asústame (2020) HD 1080p Latino

    1h 44m 2020

    Descargar Asústame (2020) HD 1080p Latino. Durante un corte de energía, dos extraños cuentan historias...

    Director: Josh Ruben

    Género: Comedia

    Actores: Rebecca Drysdale

  • Asústame (2020) PLACEBO Full HD 1080p Latino

    Asústame (2020) PLACEBO Full HD 1080p Latino

    2020
    Asústame (2020) PLACEBO Full HD 1080p Latino

    1h 44m 2020

    Descargar Asústame (2020) PLACEBO Full HD 1080p Latino. Durante un corte de energía, dos extraños...

    Director: Josh Ruben

    Género: Comedia

    Actores: Rebecca Drysdale

descargar Dave (1993) REMUX 1080p Latino – CMHDD Full 1080p 1080p gratis, Dave (1993) REMUX 1080p Latino – CMHDD Full 1080p mega 1 link, Dave (1993) REMUX 1080p Latino – CMHDD Full 1080p pelicula completa, descargar Dave (1993) REMUX 1080p Latino – CMHDD Full 1080p gratis en mega.

Dave (1993) REMUX 1080p Latino – CMHDD pelicula full hd, Dave (1993) REMUX 1080p Latino – CMHDD mega latino, Dave (1993) REMUX 1080p Latino – CMHDD 4k latino, Dave (1993) REMUX 1080p Latino – CMHDD pelicula completa, Dave (1993) REMUX 1080p Latino – CMHDD descargar gratis, descargar Dave (1993) REMUX 1080p Latino – CMHDD pelicula latino, Dave (1993) REMUX 1080p Latino – CMHDD 1 link mega, Dave (1993) REMUX 1080p Latino – CMHDD 1 link google drive, Dave (1993) REMUX 1080p Latino – CMHDD hd 1080p latino.
Comentarios 0