×

¿Problemas para descargar con Mozilla, EDGE? Deshabilita la opción "Abrir vinculos en una pestaña nueva" tal como lo muestra ésta imagen.

Das Boot (2020) Segunda Temporada AMZN WEB-DL 1080p Latino

45 vistas

Información de Das Boot (2020) Segunda Temporada AMZN WEB-DL 1080p Latino

Datos de la película

  • Calidad: 1080p
  • Audio: Español Latino AC3 5.1 WEB-DL - Ingles AC3 5.1 WEB-DL
  • Subtitulos: Español Latino SRT- FORZADOS SRT
  • Resolución: 1920x960
  • Formato: MKV
  • Codec: H.264
  • Encoder: cinemaniahdd
  • Mediainfo: Clic para Mostrar Datos Ver
  • Das Boot T02E01 AMZN WEB-DL 1080p Latino [CNMNHDD].mkv
    Format                      : Matroska
    Format version              : Version 4
    File size                   : 4.21 GiB
    Duration                    : 57 min 12 s
    Overall bit rate            : 10.5 Mb/s
    Movie name                  : Das Boot S02E01 - Exit Strategies [1080p] - CinemaniaHDD.Net
    Encoded date                : UTC 2022-08-18 22:57:39
    Writing application         : mkvmerge v56.1.0 ('My Friend') 64-bit
    Writing library             : libebml v1.4.2 + libmatroska v1.6.4

    Video
    ID                          : 1
    Format                      : AVC
    Format/Info                 : Advanced Video Codec
    Format profile              : High@L4
    Format settings             : CABAC / 4 Ref Frames
    Format settings, CABAC      : Yes
    Format settings, Reference  : 4 frames
    Codec ID                    : V_MPEG4/ISO/AVC
    Duration                    : 57 min 8 s
    Bit rate mode               : Constant
    Bit rate                    : 8 622 kb/s
    Nominal bit rate            : 10 000 kb/s
    Width                       : 1 920 pixels
    Height                      : 960 pixels
    Display aspect ratio        : 2.000
    Frame rate mode             : Constant
    Frame rate                  : 25.000 FPS
    Color space                 : YUV
    Chroma subsampling          : 4:2:0
    Bit depth                   : 8 bits
    Scan type                   : Progressive
    Bits/(Pixel*Frame)          : 0.187
    Stream size                 : 3.44 GiB (82%)
    Title                       : CinemaniaHDD
    Default                     : Yes
    Forced                      : No
    Color range                 : Limited
    Color primaries             : BT.709
    Transfer characteristics    : BT.709
    Matrix coefficients         : BT.709

    Audio #1
    ID                          : 2
    Format                      : AC-3
    Format/Info                 : Audio Coding 3
    Commercial name             : Dolby Digital
    Codec ID                    : A_AC3
    Duration                    : 57 min 8 s
    Bit rate mode               : Constant
    Bit rate                    : 640 kb/s
    Channel(s)                  : 6 channels
    Channel layout              : L R C LFE Ls Rs
    Sampling rate               : 48.0 kHz
    Frame rate                  : 31.250 FPS (1536 SPF)
    Compression mode            : Lossy
    Stream size                 : 262 MiB (6%)
    Title                       : Español latino [CinemaniaHDD]
    Language                    : Spanish
    Service kind                : Complete Main
    Default                     : Yes
    Forced                      : No

    Audio #2
    ID                          : 3
    Format                      : E-AC-3
    Format/Info                 : Enhanced AC-3
    Commercial name             : Dolby Digital Plus
    Codec ID                    : A_EAC3
    Duration                    : 57 min 8 s
    Bit rate mode               : Constant
    Bit rate                    : 640 kb/s
    Channel(s)                  : 6 channels
    Channel layout              : L R C LFE Ls Rs
    Sampling rate               : 48.0 kHz
    Frame rate                  : 31.250 FPS (1536 SPF)
    Compression mode            : Lossy
    Stream size                 : 262 MiB (6%)
    Title                       : Español latino / E-AC3 [CinemaniaHDD]
    Language                    : Spanish
    Service kind                : Complete Main
    Default                     : No
    Forced                      : No

    Audio #3
    ID                          : 4
    Format                      : E-AC-3
    Format/Info                 : Enhanced AC-3
    Commercial name             : Dolby Digital Plus
    Codec ID                    : A_EAC3
    Duration                    : 57 min 8 s
    Bit rate mode               : Constant
    Bit rate                    : 640 kb/s
    Channel(s)                  : 6 channels
    Channel layout              : L R C LFE Ls Rs
    Sampling rate               : 48.0 kHz
    Frame rate                  : 31.250 FPS (1536 SPF)
    Compression mode            : Lossy
    Stream size                 : 262 MiB (6%)
    Title                       : Aleman [CinemaniaHDD]
    Language                    : German
    Service kind                : Complete Main
    Default                     : No
    Forced                      : No

    Text #1
    ID                          : 5
    Format                      : UTF-8
    Codec ID                    : S_TEXT/UTF8
    Codec ID/Info               : UTF-8 Plain Text
    Duration                    : 36 min 39 s
    Bit rate                    : 0 b/s
    Count of elements           : 5
    Stream size                 : 127 Bytes (0%)
    Title                       : Español latino [CinemaniaHDD]
    Language                    : Spanish
    Default                     : Yes
    Forced                      : Yes

    Text #2
    ID                          : 6
    Format                      : UTF-8
    Codec ID                    : S_TEXT/UTF8
    Codec ID/Info               : UTF-8 Plain Text
    Duration                    : 55 min 57 s
    Bit rate                    : 45 b/s
    Count of elements           : 591
    Stream size                 : 18.5 KiB (0%)
    Title                       : Inglés [CinemaniaHDD]
    Language                    : English
    Default                     : No
    Forced                      : No

    Text #3
    ID                          : 7
    Format                      : UTF-8
    Codec ID                    : S_TEXT/UTF8
    Codec ID/Info               : UTF-8 Plain Text
    Duration                    : 56 min 36 s
    Bit rate                    : 37 b/s
    Count of elements           : 495
    Stream size                 : 15.6 KiB (0%)
    Title                       : Inglés [CinemaniaHDD]
    Language                    : English
    Default                     : No
    Forced                      : No

     

  • Peso: 4.21 GiB Aprox ---- 34 GiB in 8 Chapters.

Sinopsis

El reconocido capitán de submarinos Von Reinhartz es perseguido a través del Atlántico después de que su lealtad es cuestionada. Hoffmann encuentra refugio con Sam en Nueva York. En La Rochelle, Margot lucha por salvar a una familia judía.

Ficha técnica

Video trailer de la película

Enlaces de descarga

Rip de Bluray

Descargar Das Boot (2020) Segunda Temporada AMZN WEB-DL 1080p Latino




Aportes de DPeliculasHDmega la pass es:dpeliculashdmega.org Aportes de CinemaniaHD la pass es:cinemaniahdd.com
Guardado en : Drama , Series , War & Politics

Películas relacionadas

descargar Das Boot (2020) Segunda Temporada AMZN WEB-DL 1080p Latino 1080p 1080p gratis, Das Boot (2020) Segunda Temporada AMZN WEB-DL 1080p Latino 1080p mega 1 link, Das Boot (2020) Segunda Temporada AMZN WEB-DL 1080p Latino 1080p serie completa, descargar Das Boot (2020) Segunda Temporada AMZN WEB-DL 1080p Latino 1080p gratis en mega.

Das Boot (2020) Segunda Temporada AMZN WEB-DL 1080p Latino pelicula full hd, Das Boot (2020) Segunda Temporada AMZN WEB-DL 1080p Latino mega latino, Das Boot (2020) Segunda Temporada AMZN WEB-DL 1080p Latino 4k latino, Das Boot (2020) Segunda Temporada AMZN WEB-DL 1080p Latino pelicula completa, Das Boot (2020) Segunda Temporada AMZN WEB-DL 1080p Latino descargar gratis, descargar Das Boot (2020) Segunda Temporada AMZN WEB-DL 1080p Latino pelicula latino, Das Boot (2020) Segunda Temporada AMZN WEB-DL 1080p Latino 1 link mega, Das Boot (2020) Segunda Temporada AMZN WEB-DL 1080p Latino 1 link google drive, Das Boot (2020) Segunda Temporada AMZN WEB-DL 1080p Latino hd 1080p latino.
Comentarios 0