×

¿Problemas para descargar con Mozilla, EDGE? Deshabilita la opción "Abrir vinculos en una pestaña nueva" tal como lo muestra ésta imagen.

Darlings (2022) NF WEB-DL 1080p Latino

145 vistas

Información de Darlings (2022) NF WEB-DL 1080p Latino

Datos de la película

  • Calidad: WEBDL
  • Audio: Se especifica abajo de la Sinopsis
  • Subtitulos: Español Latino SRT- FORZADOS SRT
  • Resolución: 1920x1080p
  • Formato: MKV
  • Codec: H.264
  • Encoder: Melkor
  • Mediainfo: Clic para Mostrar Datos Ver
  • Darlings (2022) NF WebDL 1080p Latino.mkv
    Format                      : Matroska
    Format version              : Version 4
    File size                   : 3.96 GiB
    Duration                    : 2 h 14 min
    Overall bit rate mode       : Variable
    Overall bit rate            : 4 226 kb/s
    Movie name                  : Darlings (2022) CinemaniaHDD.Net
    Encoded date                : UTC 2022-08-06 02:31:17
    Writing application         : mkvmerge v56.1.0 ('My Friend') 64-bit
    Writing library             : libebml v1.4.2 + libmatroska v1.6.4
    Attachments                 : CINEMANIAHD.png

    Video
    ID                          : 1
    Format                      : AVC
    Format/Info                 : Advanced Video Codec
    Format profile              : Main@L4
    Format settings             : CABAC / 3 Ref Frames
    Format settings, CABAC      : Yes
    Format settings, Reference  : 3 frames
    Codec ID                    : V_MPEG4/ISO/AVC
    Duration                    : 2 h 14 min
    Bit rate mode               : Variable
    Bit rate                    : 2 303 kb/s
    Nominal bit rate            : 2 610 kb/s
    Maximum bit rate            : 3 915 kb/s
    Width                       : 1 920 pixels
    Height                      : 1 080 pixels
    Display aspect ratio        : 16:9
    Frame rate mode             : Constant
    Frame rate                  : 24.000 FPS
    Color space                 : YUV
    Chroma subsampling          : 4:2:0
    Bit depth                   : 8 bits
    Scan type                   : Progressive
    Bits/(Pixel*Frame)          : 0.046
    Stream size                 : 2.16 GiB (55%)
    Title                       : Web HD1080p [CinemaniaHDD]
    Writing library             : x264 core 148 r2727 7d026e8
    Encoding settings           : cabac=1 / ref=3 / deblock=1:0:0 / analyse=0x1:0x111 / me=umh / subme=10 / psy=1 / psy_rd=1.00:0.00 / mixed_ref=1 / me_range=24 / chroma_me=1 / trellis=2 / 8x8dct=0 / cqm=0 / deadzone=21,11 / fast_pskip=1 / chroma_qp_offset=-2 / threads=6 / lookahead_threads=1 / sliced_threads=0 / nr=0 / decimate=1 / interlaced=0 / bluray_compat=0 / stitchable=1 / constrained_intra=0 / bframes=2 / b_pyramid=0 / b_adapt=2 / b_bias=0 / direct=3 / weightb=1 / open_gop=0 / weightp=2 / keyint=250 / keyint_min=24 / scenecut=0 / intra_refresh=0 / rc_lookahead=48 / rc=2pass / mbtree=1 / bitrate=2610 / ratetol=1.0 / qcomp=0.50 / qpmin=6 / qpmax=51 / qpstep=4 / cplxblur=20.0 / qblur=0.5 / vbv_maxrate=3915 / vbv_bufsize=5220 / nal_hrd=vbr / filler=0 / ip_ratio=1.40 / aq=1:1.00
    Default                     : Yes
    Forced                      : Yes

    Audio #1
    ID                          : 2
    Format                      : AC-3
    Format/Info                 : Audio Coding 3
    Commercial name             : Dolby Digital
    Codec ID                    : A_AC3
    Duration                    : 2 h 14 min
    Bit rate mode               : Constant
    Bit rate                    : 640 kb/s
    Channel(s)                  : 6 channels
    Channel layout              : L R C LFE Ls Rs
    Sampling rate               : 48.0 kHz
    Frame rate                  : 31.250 FPS (1536 SPF)
    Compression mode            : Lossy
    Stream size                 : 615 MiB (15%)
    Title                       : Español Latino AC3 [CinemaniaHDD]
    Language                    : Spanish
    Service kind                : Complete Main
    Default                     : Yes
    Forced                      : Yes

    Audio #2
    ID                          : 3
    Format                      : E-AC-3
    Format/Info                 : Enhanced AC-3
    Commercial name             : Dolby Digital Plus
    Codec ID                    : A_EAC3
    Duration                    : 2 h 14 min
    Bit rate mode               : Constant
    Bit rate                    : 640 kb/s
    Channel(s)                  : 6 channels
    Channel layout              : L R C LFE Ls Rs
    Sampling rate               : 48.0 kHz
    Frame rate                  : 31.250 FPS (1536 SPF)
    Compression mode            : Lossy
    Stream size                 : 615 MiB (15%)
    Title                       : Español Latino EAC3 [CinemaniaHDD]
    Language                    : Spanish
    Service kind                : Complete Main
    Default                     : No
    Forced                      : No

    Audio #3
    ID                          : 4
    Format                      : E-AC-3
    Format/Info                 : Enhanced AC-3
    Commercial name             : Dolby Digital Plus
    Codec ID                    : A_EAC3
    Duration                    : 2 h 14 min
    Bit rate mode               : Constant
    Bit rate                    : 640 kb/s
    Channel(s)                  : 6 channels
    Channel layout              : L R C LFE Ls Rs
    Sampling rate               : 48.0 kHz
    Frame rate                  : 31.250 FPS (1536 SPF)
    Compression mode            : Lossy
    Stream size                 : 615 MiB (15%)
    Title                       : Hindi [CinemaniaHDD]
    Language                    : Hindi
    Service kind                : Complete Main
    Default                     : No
    Forced                      : No

    Text #1
    ID                          : 5
    Format                      : UTF-8
    Codec ID                    : S_TEXT/UTF8
    Codec ID/Info               : UTF-8 Plain Text
    Duration                    : 2 h 12 min
    Bit rate                    : 4 b/s
    Count of elements           : 146
    Stream size                 : 4.44 KiB (0%)
    Title                       : Forzados-SRT [CinemaniaHDD]
    Language                    : Spanish
    Default                     : Yes
    Forced                      : Yes

    Text #2
    ID                          : 6
    Format                      : UTF-8
    Codec ID                    : S_TEXT/UTF8
    Codec ID/Info               : UTF-8 Plain Text
    Duration                    : 2 h 12 min
    Bit rate                    : 46 b/s
    Count of elements           : 1675
    Stream size                 : 45.3 KiB (0%)
    Title                       : Español-SRT [CinemaniaHDD]
    Language                    : Spanish
    Default                     : No
    Forced                      : No

    Text #3
    ID                          : 7
    Format                      : UTF-8
    Codec ID                    : S_TEXT/UTF8
    Codec ID/Info               : UTF-8 Plain Text
    Duration                    : 2 h 9 min
    Bit rate                    : 49 b/s
    Count of elements           : 1663
    Stream size                 : 46.7 KiB (0%)
    Title                       : Ingles-SRT [CinemaniaHDD]
    Language                    : English
    Default                     : No
    Forced                      : No

  • Peso: 3.96 GiB

Sinopsis

Descargar Darlings (2022) NF WEB-DL 1080p Latino. Badru espera que su colérico marido cambie si deja de beber. Pero cuando su rabia provoca una tragedia, su madre y ella ponen en marcha una audaz (aunque torpe) venganza.

Español Latino EAC3 & AC3 5.1 NF – Hindi EAC3 5.1 NF

Ficha técnica

Video trailer de la película

Enlaces de descarga

Rip de Bluray

Descargar Darlings (2022) NF WEB-DL 1080p Latino




Aportes de DPeliculasHDmega la pass es:dpeliculashdmega.org Aportes de CinemaniaHD la pass es:cinemaniahdd.com
Guardado en : Comedia , Crimen , Netflix , Suspenso

Películas relacionadas

  • Hasta la muerte (2021) HD 1080p Latino

    Hasta la muerte (2021) HD 1080p Latino

    2021
    Hasta la muerte (2021) HD 1080p Latino

    1h 28m 2021

    Descargar Hasta la muerte (2021) HD 1080p Latino. Después de una velada romántica en su apartada casa...

    Director: SK Dale

    Género: HD 1080p

    Actores: Teodora Djuric

  • Hasta la muerte (2021) PLACEBO Full HD 1080p Latino

    Hasta la muerte (2021) PLACEBO Full HD 1080p Latino

    2021
    Hasta la muerte (2021) PLACEBO Full HD 1080p Latino

    1h 28m 2021

    Descargar Hasta la muerte (2021) PLACEBO Full HD 1080p Latino. Después de una velada romántica en su...

    Director: SK Dale

    Género: FULL 1080p Plateadas

    Actores: Teodora Djuric

  • Hasta la muerte (2021) REMUX 1080p Latino

    Hasta la muerte (2021) REMUX 1080p Latino

    2021
    Hasta la muerte (2021) REMUX 1080p Latino

    1h 28m 2021

    Descargar Hasta la muerte (2021) REMUX 1080p Latino. Después de una velada romántica en su apartada...

    Director: SK Dale

    Género: Remux

    Actores: Teodora Djuric

  • Abuelos Principiantes (2020) HD 1080p Latino

    Abuelos Principiantes (2020) HD 1080p Latino

    2020
    Abuelos Principiantes (2020) HD 1080p Latino

    1h 44m 2020

    Descargar Abuelos Principiantes (2020) HD 1080p Latino. Un grupo de jubilados quiere escapar del aburrimiento...

    Director: Wolfgang Groos

    Género: Comedia

    Actores: Sabine Barth

Darlings (2022) NF WEB-DL 1080p Latino pelicula full hd, Darlings (2022) NF WEB-DL 1080p Latino mega latino, Darlings (2022) NF WEB-DL 1080p Latino 4k latino, Darlings (2022) NF WEB-DL 1080p Latino pelicula completa, Darlings (2022) NF WEB-DL 1080p Latino descargar gratis, descargar Darlings (2022) NF WEB-DL 1080p Latino pelicula latino, Darlings (2022) NF WEB-DL 1080p Latino 1 link mega, Darlings (2022) NF WEB-DL 1080p Latino 1 link google drive, Darlings (2022) NF WEB-DL 1080p Latino hd 1080p latino.
Comentarios 0