Darkest Hour (2017) 1080p Latino

1.072 vistas
1 estrella2 estrellas3 estrellas4 estrellas5 estrellas (3 votos, promedio: 5,00 de 5)
Cargando…

Información de Darkest Hour (2017) 1080p Latino

Datos de la película

  • Calidad: 1080p
  • Audio: Español Latino AC3 5.1 BLURAY - Ingles AC3 5.1 BLURAY
  • Subtitulos: Español Latino SRT- FORZADOS SRT
  • Resolución: 1920x1036p
  • Formato: MKV
  • Codec: H.264
  • Encoder: CinemaniaHDD
  • Mediainfo: Clic para Mostrar Datos Ver
  • Format                                   : Matroska
    Format version                           : Version 4 / Version 2
    File size                                : 3.70 GiB
    Duration                                 : 2 h 4 min
    Overall bit rate                         : 4 244 kb/s
    Movie name                               : CinemaniaHDD.COM
    Encoded date                             : UTC 2018-02-15 23:19:55 / UTC 2018-02-15T21:34:51Z
    Writing application                      : mkvmerge v17.0.0 ('Be Ur Friend') 64-bit
    Writing library                          : libebml v1.3.5 + libmatroska v1.4.8 / Lavf57.7.2

    Video
    ID                                       : 1
    Format                                   : AVC
    Format/Info                              : Advanced Video Codec
    Format profile                           : [email protected]
    Format settings                          : CABAC / 4 Ref Frames
    Format settings, CABAC                   : Yes
    Format settings, RefFrames               : 4 frames
    Codec ID                                 : V_MPEG4/ISO/AVC
    Duration                                 : 2 h 4 min
    Bit rate                                 : 3 500 kb/s
    Width                                    : 1 920 pixels
    Height                                   : 1 036 pixels
    Display aspect ratio                     : 1.85:1
    Frame rate mode                          : Constant
    Frame rate                               : 23.976 (24000/1001) FPS
    Color space                              : YUV
    Chroma subsampling                       : 4:2:0
    Bit depth                                : 8 bits
    Scan type                                : Progressive
    Bits/(Pixel*Frame)                       : 0.073
    Stream size                              : 2.96 GiB (80%)
    Writing library                          : x264 core 148 r2708 86b7198
    Encoding settings                        : cabac=1 / ref=4 / deblock=1:0:0 / analyse=0x3:0x113 / me=umh / subme=8 / psy=1 / psy_rd=1.00:0.00 / mixed_ref=1 / me_range=16 / chroma_me=1 / trellis=1 / 8x8dct=1 / cqm=0 / deadzone=21,11 / fast_pskip=1 / chroma_qp_offset=-2 / threads=32 / lookahead_threads=5 / sliced_threads=0 / nr=0 / decimate=1 / interlaced=0 / bluray_compat=0 / constrained_intra=0 / bframes=3 / b_pyramid=2 / b_adapt=2 / b_bias=0 / direct=3 / weightb=1 / open_gop=0 / weightp=2 / keyint=240 / keyint_min=24 / scenecut=40 / intra_refresh=0 / rc_lookahead=50 / rc=abr / mbtree=1 / bitrate=3500 / ratetol=1.0 / qcomp=0.60 / qpmin=0 / qpmax=69 / qpstep=4 / vbv_maxrate=62500 / vbv_bufsize=78125 / nal_hrd=none / filler=0 / ip_ratio=1.40 / aq=1:1.00
    Default                                  : Yes
    Forced                                   : No
    Color range                              : Limited
    Color primaries                          : BT.709
    Transfer characteristics                 : BT.709
    Matrix coefficients                      : BT.709
    Statistics Tags Issue                    : mkvmerge v17.0.0 ('Be Ur Friend') 64-bit 2018-02-15 23:19:55 / mkvmerge v17.0.0 ('Be Ur Friend') 64-bit 2018-02-15 23:19:55 / UTC 2018-02-15T21:34:51Z
    FromStats_BitRate                        : 3473924
    FromStats_Duration                       : 02:04:54.487000000
    FromStats_FrameCount                     : 179688
    FromStats_StreamSize                     : 3254410688

    Audio #1
    ID                                       : 2
    Format                                   : AC-3
    Format/Info                              : Audio Coding 3
    Format settings, Endianness              : Big
    Codec ID                                 : A_AC3
    Duration                                 : 2 h 4 min
    Bit rate mode                            : Constant
    Bit rate                                 : 384 kb/s
    Channel(s)                               : 6 channels
    Channel positions                        : Front: L C R, Side: L R, LFE
    Sampling rate                            : 48.0 kHz
    Frame rate                               : 31.250 FPS (1536 SPF)
    Bit depth                                : 16 bits
    Compression mode                         : Lossy
    Delay relative to video                  : -5 ms
    Stream size                              : 343 MiB (9%)
    Language                                 : Spanish
    Service kind                             : Complete Main
    Default                                  : Yes
    Forced                                   : No
    Statistics Tags Issue                    : mkvmerge v17.0.0 ('Be Ur Friend') 64-bit 2018-02-15 23:19:55 / mkvmerge v17.0.0 ('Be Ur Friend') 64-bit 2018-02-15 23:19:55 / UTC 2018-02-15T21:34:51Z
    FromStats_BitRate                        : 384000
    FromStats_Duration                       : 02:04:54.528000000
    FromStats_FrameCount                     : 234204
    FromStats_StreamSize                     : 359737344

    Audio #2
    ID                                       : 3
    Format                                   : AC-3
    Format/Info                              : Audio Coding 3
    Format settings, Endianness              : Big
    Codec ID                                 : A_AC3
    Duration                                 : 2 h 4 min
    Bit rate mode                            : Constant
    Bit rate                                 : 384 kb/s
    Channel(s)                               : 6 channels
    Channel positions                        : Front: L C R, Side: L R, LFE
    Sampling rate                            : 48.0 kHz
    Frame rate                               : 31.250 FPS (1536 SPF)
    Bit depth                                : 16 bits
    Compression mode                         : Lossy
    Delay relative to video                  : -5 ms
    Stream size                              : 343 MiB (9%)
    Title                                    : Surround
    Language                                 : English
    Service kind                             : Complete Main
    Default                                  : No
    Forced                                   : No
    Statistics Tags Issue                    : mkvmerge v17.0.0 ('Be Ur Friend') 64-bit 2018-02-15 23:19:55 / mkvmerge v17.0.0 ('Be Ur Friend') 64-bit 2018-02-15 23:19:55 / UTC 2018-02-15T21:34:51Z
    FromStats_BitRate                        : 384000
    FromStats_Duration                       : 02:04:54.464000000
    FromStats_FrameCount                     : 234202
    FromStats_StreamSize                     : 359734272

    Text #1
    ID                                       : 4
    Format                                   : UTF-8
    Codec ID                                 : S_TEXT/UTF8
    Codec ID/Info                            : UTF-8 Plain Text
    Language                                 : Spanish
    Default                                  : Yes
    Forced                                   : No
    Statistics Tags Issue                    : mkvmerge v17.0.0 ('Be Ur Friend') 64-bit 2018-02-15 23:19:55 / mkvmerge v17.0.0 ('Be Ur Friend') 64-bit 2018-02-15 23:19:55 / UTC 2018-02-15T21:34:51Z
    FromStats_BitRate                        : 1
    FromStats_Duration                       : 01:58:37.326000000
    FromStats_FrameCount                     : 42
    FromStats_StreamSize                     : 1186

    Text #2
    ID                                       : 5
    Format                                   : UTF-8
    Codec ID                                 : S_TEXT/UTF8
    Codec ID/Info                            : UTF-8 Plain Text
    Language                                 : Spanish
    Default                                  : No
    Forced                                   : No
    Statistics Tags Issue                    : mkvmerge v17.0.0 ('Be Ur Friend') 64-bit 2018-02-15 23:19:55 / mkvmerge v17.0.0 ('Be Ur Friend') 64-bit 2018-02-15 23:19:55 / UTC 2018-02-15T21:34:51Z
    FromStats_BitRate                        : 66
    FromStats_Duration                       : 01:58:37.328000000
    FromStats_FrameCount                     : 1814
    FromStats_StreamSize                     : 59100

  • Peso: 3.70 GiB

Sinopsis

Gran Bretaña, Segunda Guerra Mundial. Pocos días después de convertirse en Primer Ministro, Winston Churchill (Gary Oldman), debe tomar una difícil decisión. En pleno avance de las tropas nazis por toda Europa Occidental, cuando la amenaza de invasión es inminente, Churchill tendrá que elegir entre luchar contra Hitler o aceptar el acuerdo de paz que este le ofrece pactar. A pesar de la presión a la que estuvo sometido, ya que su propio partido llegó a conspirar en su contra y el Rey Jorge VI (Ben Mendelsohn) era muy escéptico al respecto, la firme negativa de Churchill a aceptar la derrota, la rendición o un acuerdo de paz, sirvieron como inspiración a la resistencia británica. Durante los difíciles primeros años de la guerra, cuando el Reino Unido se quedó solo en su firme oposición contra la Alemania nazi, Churchill deberá soportar su hora más oscura, reunir a una nación, luchar por los ideales y la libertad, y tratar de cambiar el curso de la historia mundial.

 

Creditos de audio Hemor

Ficha técnica

Video trailer de la película

Enlaces de descarga

Rip de Bluray

Descargar Darkest Hour (2017) 1080p Latino




Aportes de DPeliculasHDmega la pass es:dpeliculashdmega.org Aportes de CinemaniaHD la pass es:cinemaniahdd.com
Guardado en : Drama , Historia

Películas relacionadas

  • The Punisher (2019) Temporada 2 NF 1080p Latino

    2017
    The Punisher (2019) Temporada 2 NF 1080p Latino

    5.0 0h 53m 2017

    Por ahora, Netflix no ha revelado el contenido de la temporada 2 de "The Punisher", ya que lo único...

    Director: Steve Lightfoot

    Género: Action & Adventure

    Actores: Josh Stewart

  • La buena esposa (2017) Web-DL 1080p Latino

    2018
    La buena esposa (2017) Web-DL 1080p Latino

    0.0 1h 40m 2018

    Descargar La buena esposa (2017) Web-DL 1080p Latino, Mega, Google Drive, Torrent. Joan Castleman (Glenn...

    Director: Björn Runge

    Género: Drama

    Actores: Twinnie Lee Moore

  • Peloton (1986) Full 1080p Latino

    1986
    Peloton (1986) Full 1080p Latino

    0.0 2h 0m 1986

    Descargar Peloton (1986) Full 1080p Latino, Mega, Google Drive, Torrent. Chris Taylor es un ingenuo joven...

    Director: Tim Minear

    Género: Acción

    Actores: Willem Dafoe

  • Boy Erased (2018) HD 1080p Latino

    2018
    Boy Erased (2018) HD 1080p Latino

    0.0 1h 54m 2018

    Descargar Boy Erased (2018) HD 1080p Latino, Mega, Google Drive, Torrent. La historia se centra en el...

    Director: Joel Edgerton

    Género: Drama

    Actores: Xavier Dolan

  • Indivisible (2018) HD Español Latino

    2018
    Indivisible (2018) HD Español Latino

    0.0 2h 0m 2018

    'Indivisible' narra la extraordinaria historia real del capellán del ejército Darren Turner y su esposa...

    Director: David G. Evans

    Género: Bélica

    Actores: Tia Mowry

Comentarios 2
  • Carlos de la Cruz - 18 febrero, 2018

    Buenas tardes
    No se descomprime con las dos contraseñas, agradecerían si me dijeraun cuál es?
    Saludos

    • Dracarys - 22 febrero, 2018

      cinemaniahdd.net