×

¿Problemas para descargar con Mozilla, EDGE? Deshabilita la opción "Abrir vinculos en una pestaña nueva" tal como lo muestra ésta imagen.

Dark Web: Cicada 3301 (2021) HD 1080p Latino

58 vistas

Información de Dark Web: Cicada 3301 (2021) HD 1080p Latino

Datos de la película

  • Calidad: 1080p
  • Audio: Español Latino AC3 5.1 WEB-DL - Ingles AC3 5.1 BLURAY
  • Subtitulos: Español Latino SRT- FORZADOS SRT
  • Resolución: 1920x960p
  • Formato: MKV
  • Codec: H.264
  • Encoder: Melkor
  • Mediainfo: Clic para Mostrar Datos Ver
  • Dark Web Cicada 3301 (2021) HD 1080p Latino.mkv
    Format                      : Matroska
    Format version              : Version 4
    File size                   : 3.21 GiB
    Duration                    : 1 h 45 min
    Overall bit rate            : 4 366 kb/s
    Movie name                  : Dark Web Cicada 3301 (2021) CinemaniaHDD.Net
    Encoded date                : UTC 2022-10-18 18:39:59
    Writing application         : mkvmerge v56.1.0 ('My Friend') 64-bit
    Writing library             : libebml v1.4.2 + libmatroska v1.6.4
    Attachments                 : CINEMANIAHD.png

    Video
    ID                          : 1
    Format                      : AVC
    Format/Info                 : Advanced Video Codec
    Format profile              : High@L4.1
    Format settings             : CABAC / 4 Ref Frames
    Format settings, CABAC      : Yes
    Format settings, Reference  : 4 frames
    Codec ID                    : V_MPEG4/ISO/AVC
    Duration                    : 1 h 45 min
    Bit rate                    : 3 500 kb/s
    Width                       : 1 920 pixels
    Height                      : 960 pixels
    Display aspect ratio        : 2.000
    Frame rate mode             : Constant
    Frame rate                  : 23.976 (24000/1001) FPS
    Color space                 : YUV
    Chroma subsampling          : 4:2:0
    Bit depth                   : 8 bits
    Scan type                   : Progressive
    Bits/(Pixel*Frame)          : 0.079
    Stream size                 : 2.55 GiB (79%)
    Title                       : HD1080p [CinemaniaHDD]
    Writing library             : x264 core 163 r3059 b684ebe0
    Encoding settings           : cabac=1 / ref=4 / deblock=1:-1:-1 / analyse=0x3:0x133 / me=umh / subme=9 / psy=1 / psy_rd=1.00:0.15 / mixed_ref=1 / me_range=16 / chroma_me=1 / trellis=2 / 8x8dct=1 / cqm=0 / deadzone=21,11 / fast_pskip=1 / chroma_qp_offset=-3 / threads=24 / lookahead_threads=2 / sliced_threads=0 / nr=0 / decimate=1 / interlaced=0 / bluray_compat=0 / constrained_intra=0 / bframes=3 / b_pyramid=2 / b_adapt=2 / b_bias=0 / direct=3 / weightb=1 / open_gop=0 / weightp=2 / keyint=240 / keyint_min=24 / scenecut=40 / intra_refresh=0 / rc_lookahead=60 / rc=abr / mbtree=1 / bitrate=3500 / ratetol=1.0 / qcomp=0.60 / qpmin=0 / qpmax=69 / qpstep=4 / vbv_maxrate=62500 / vbv_bufsize=78125 / nal_hrd=none / filler=0 / ip_ratio=1.40 / aq=1:1.00
    Default                     : Yes
    Forced                      : Yes
    Color range                 : Limited
    Color primaries             : BT.709
    Transfer characteristics    : BT.709
    Matrix coefficients         : BT.709

    Audio #1
    ID                          : 2
    Format                      : AC-3
    Format/Info                 : Audio Coding 3
    Commercial name             : Dolby Digital
    Codec ID                    : A_AC3
    Duration                    : 1 h 45 min
    Bit rate mode               : Constant
    Bit rate                    : 448 kb/s
    Channel(s)                  : 6 channels
    Channel layout              : L R C LFE Ls Rs
    Sampling rate               : 48.0 kHz
    Frame rate                  : 31.250 FPS (1536 SPF)
    Compression mode            : Lossy
    Delay relative to video     : -5 ms
    Stream size                 : 338 MiB (10%)
    Title                       : Español Latino [CinemaniaHDD]
    Language                    : Spanish
    Service kind                : Complete Main
    Default                     : Yes
    Forced                      : Yes

    Audio #2
    ID                          : 3
    Format                      : AC-3
    Format/Info                 : Audio Coding 3
    Commercial name             : Dolby Digital
    Codec ID                    : A_AC3
    Duration                    : 1 h 45 min
    Bit rate mode               : Constant
    Bit rate                    : 448 kb/s
    Channel(s)                  : 6 channels
    Channel layout              : L R C LFE Ls Rs
    Sampling rate               : 48.0 kHz
    Frame rate                  : 31.250 FPS (1536 SPF)
    Compression mode            : Lossy
    Delay relative to video     : -5 ms
    Stream size                 : 338 MiB (10%)
    Title                       : Ingles [CinemaniaHDD]
    Language                    : English
    Service kind                : Complete Main
    Default                     : No
    Forced                      : No

    Text #1
    ID                          : 4
    Format                      : UTF-8
    Codec ID                    : S_TEXT/UTF8
    Codec ID/Info               : UTF-8 Plain Text
    Duration                    : 1 h 33 min
    Bit rate                    : 1 b/s
    Count of elements           : 27
    Stream size                 : 979 Bytes (0%)
    Title                       : Forzados-SRT [CinemaniaHDD]
    Language                    : Spanish
    Default                     : Yes
    Forced                      : Yes

    Text #2
    ID                          : 5
    Format                      : UTF-8
    Codec ID                    : S_TEXT/UTF8
    Codec ID/Info               : UTF-8 Plain Text
    Duration                    : 1 h 38 min
    Bit rate                    : 74 b/s
    Count of elements           : 1532
    Stream size                 : 53.7 KiB (0%)
    Title                       : Español-SRT [CinemaniaHDD]
    Language                    : Spanish
    Default                     : No
    Forced                      : No

    Menu
    00:00:00.000                : Chapter 01
    00:05:56.314                : Chapter 02
    00:09:27.233                : Chapter 03
    00:17:24.710                : Chapter 04
    00:22:50.327                : Chapter 05
    00:29:02.699                : Chapter 06
    00:34:53.341                : Chapter 07
    00:43:45.581                : Chapter 08
    00:51:43.183                : Chapter 09
    00:56:49.656                : Chapter 10
    01:03:28.596                : Chapter 11
    01:09:21.532                : Chapter 12
    01:16:17.031                : Chapter 13
    01:21:32.805                : Chapter 14
    01:30:55.533                : Chapter 15
    01:35:03.823                : Chapter 16

  • Peso: 3.21 GiB

Sinopsis

Descargar Dark Web: Cicada 3301 (2021) HD 1080p Latino. El genial hacker Connor descubre la Cicada 3301, una búsqueda del tesoro online que podría ser una herramienta de reclutamiento para una sociedad secreta. Pronto, Conner, su amigo Avi, experto en arte, y la secreta bibliotecaria Gwen se lanzan a descubrir pistas del mundo real desde los sitios de grafiti hasta las bibliotecas antiguas. Pero deben huir de los agresivos agentes de la NSA, que también están tras la pista de la Cicada y quieren la gloria para ellos.

Ficha técnica

Video trailer de la película

Enlaces de descarga

Rip de Bluray

Descargar Dark Web: Cicada 3301 (2021) HD 1080p Latino




Aportes de DPeliculasHDmega la pass es:dpeliculashdmega.org Aportes de CinemaniaHD la pass es:cinemaniahdd.com
Guardado en : Acción , Comedia , HD 1080p , Suspenso

Películas relacionadas

descargar Dark Web: Cicada 3301 (2021) HD 1080p Latino 1080p 1080p gratis, Dark Web: Cicada 3301 (2021) HD 1080p Latino 1080p mega 1 link, Dark Web: Cicada 3301 (2021) HD 1080p Latino 1080p pelicula completa, descargar Dark Web: Cicada 3301 (2021) HD 1080p Latino 1080p gratis en mega.

Dark Web: Cicada 3301 (2021) HD 1080p Latino pelicula full hd, Dark Web: Cicada 3301 (2021) HD 1080p Latino mega latino, Dark Web: Cicada 3301 (2021) HD 1080p Latino 4k latino, Dark Web: Cicada 3301 (2021) HD 1080p Latino pelicula completa, Dark Web: Cicada 3301 (2021) HD 1080p Latino descargar gratis, descargar Dark Web: Cicada 3301 (2021) HD 1080p Latino pelicula latino, Dark Web: Cicada 3301 (2021) HD 1080p Latino 1 link mega, Dark Web: Cicada 3301 (2021) HD 1080p Latino 1 link google drive, Dark Web: Cicada 3301 (2021) HD 1080p Latino hd 1080p latino.
Comentarios 0