×

¿Problemas para descargar con Mozilla, EDGE? Deshabilita la opción "Abrir vinculos en una pestaña nueva" tal como lo muestra ésta imagen.

Aguas oscuras (2019) Web-DL 1080p Latino

1.305 vistas

Información de Aguas oscuras (2019) Web-DL 1080p Latino

Datos de la película

  • Calidad: WEBDL
  • Audio: Español Latino AC3 2.0 iTunes - Ingles AC3 5.1 iTunes
  • Subtitulos: Español Latino SRT- FORZADOS SRT
  • Resolución: 1916x796p
  • Formato: MKV
  • Codec: H.264
  • Encoder: CinemaniaHD
  • Mediainfo: Clic para Mostrar Datos Ver
  • Aguas Oscuras (2019) Web-DL 1080p Latino-CMHDD.mkv
    Format                      : Matroska
    Format version              : Version 4
    File size                   : 4.66 GiB
    Duration                    : 2 h 7 min
    Overall bit rate            : 5 250 kb/s
    Movie name                  : CinemaniaHDD.Net
    Encoded date                : UTC 2020-02-17 18:22:06
    Writing application         : mkvmerge v42.0.0 ('Overtime') 64-bit
    Writing library             : libebml v1.3.10 + libmatroska v1.5.2
    Attachments                 : CINEMANIAHD.png

    Video
    ID                          : 1
    Format                      : AVC
    Format/Info                 : Advanced Video Codec
    Format profile              : High@L4
    Format settings             : CABAC / 5 Ref Frames
    Format settings, CABAC      : Yes
    Format settings, ReFrames   : 5 frames
    Codec ID                    : V_MPEG4/ISO/AVC
    Duration                    : 2 h 7 min
    Bit rate                    : 4 607 kb/s
    Width                       : 1 916 pixels
    Height                      : 796 pixels
    Display aspect ratio        : 2.40:1
    Frame rate mode             : Constant
    Frame rate                  : 23.976 (23976/1000) FPS
    Color space                 : YUV
    Chroma subsampling          : 4:2:0
    Bit depth                   : 8 bits
    Scan type                   : Progressive
    Bits/(Pixel*Frame)          : 0.126
    Stream size                 : 4.09 GiB (88%)
    Title                       : HD1080p [Web]
    Default                     : Yes
    Forced                      : Yes
    Color range                 : Limited
    Color primaries             : BT.709
    Transfer characteristics    : BT.709
    Matrix coefficients         : BT.709

    Audio #1
    ID                          : 2
    Format                      : AC-3
    Format/Info                 : Audio Coding 3
    Commercial name             : Dolby Digital
    Codec ID                    : A_AC3
    Duration                    : 2 h 7 min
    Bit rate mode               : Constant
    Bit rate                    : 256 kb/s
    Channel(s)                  : 2 channels
    Channel layout              : L R
    Sampling rate               : 48.0 kHz
    Frame rate                  : 31.250 FPS (1536 SPF)
    Bit depth                   : 16 bits
    Compression mode            : Lossy
    Stream size                 : 233 MiB (5%)
    Title                       : AC3_2.0_Web_Esp
    Language                    : Spanish
    Service kind                : Complete Main
    Default                     : Yes
    Forced                      : Yes

    Audio #2
    ID                          : 3
    Format                      : AC-3
    Format/Info                 : Audio Coding 3
    Commercial name             : Dolby Digital
    Codec ID                    : A_AC3
    Duration                    : 2 h 7 min
    Bit rate mode               : Constant
    Bit rate                    : 384 kb/s
    Channel(s)                  : 6 channels
    Channel layout              : L R C LFE Ls Rs
    Sampling rate               : 48.0 kHz
    Frame rate                  : 31.250 FPS (1536 SPF)
    Bit depth                   : 16 bits
    Compression mode            : Lossy
    Stream size                 : 349 MiB (7%)
    Title                       : AC3_5.1_Web_Eng
    Language                    : English
    Service kind                : Complete Main
    Default                     : No
    Forced                      : No

    Text #1
    ID                          : 4
    Format                      : UTF-8
    Codec ID                    : S_TEXT/UTF8
    Codec ID/Info               : UTF-8 Plain Text
    Duration                    : 5 s 255 ms
    Bit rate                    : 170 b/s
    Count of elements           : 2
    Stream size                 : 112 Bytes (0%)
    Title                       : Sub_Forzados
    Language                    : Spanish
    Default                     : Yes
    Forced                      : Yes

    Text #2
    ID                          : 5
    Format                      : UTF-8
    Codec ID                    : S_TEXT/UTF8
    Codec ID/Info               : UTF-8 Plain Text
    Duration                    : 2 h 6 min
    Bit rate                    : 63 b/s
    Count of elements           : 1806
    Stream size                 : 59.1 KiB (0%)
    Title                       : Sub_Esp
    Language                    : Spanish
    Default                     : No
    Forced                      : No

    Menu
    00:00:00.000                : en:1
    00:10:09.192                : en:2
    00:18:19.432                : en:3
    00:28:21.450                : en:4
    00:36:49.958                : en:5
    00:44:46.892                : en:6
    00:50:18.055                : en:7
    01:04:18.395                : en:8
    01:08:47.080                : en:9
    01:17:24.639                : en:10
    01:23:52.150                : en:11
    01:25:33.000                : en:12
    01:31:41.993                : en:13
    01:36:15.975                : en:14
    01:38:56.759                : en:15
    01:42:27.301                : en:16
    01:45:12.173                : en:17
    01:50:33.077                : en:18
    02:00:17.578                : en:19
    02:02:03.557                : en:20

  • Peso: 4.66 GiB

Sinopsis

Descargar Aguas oscuras (2019) Web-DL 1080p Latino Inspirada en una impactante historia real, un tenaz abogado (Mark Ruffalo) descubre el oscuro secreto que conecta un número creciente de muertes inexplicables con una de las corporaciones más grandes del mundo. En el proceso, arriesga todo: su futuro, su familia y su propia vida, para sacar a la luz la verdad.

Ficha técnica

  • Titulo original: Dark Waters
  • Fecha de lanzamiento: 22-11-2019 (United States of America)
  • Director: Todd Haynes
  • Género: Drama

Video trailer de la película

Enlaces de descarga

Rip de Bluray

Descargar Aguas oscuras (2019) Web-DL 1080p Latino




Aportes de DPeliculasHDmega la pass es:dpeliculashdmega.org Aportes de CinemaniaHD la pass es:cinemaniahdd.com
Guardado en : Drama

Películas relacionadas

descargar Aguas oscuras (2019) Web-DL 1080p Latino WEBDL 1080p gratis, Aguas oscuras (2019) Web-DL 1080p Latino WEBDL mega 1 link, Aguas oscuras (2019) Web-DL 1080p Latino WEBDL pelicula completa, descargar Aguas oscuras (2019) Web-DL 1080p Latino WEBDL gratis en mega.

Aguas oscuras (2019) Web-DL 1080p Latino pelicula full hd, Aguas oscuras (2019) Web-DL 1080p Latino mega latino, Aguas oscuras (2019) Web-DL 1080p Latino 4k latino, Aguas oscuras (2019) Web-DL 1080p Latino pelicula completa, Aguas oscuras (2019) Web-DL 1080p Latino descargar gratis, descargar Aguas oscuras (2019) Web-DL 1080p Latino pelicula latino, Aguas oscuras (2019) Web-DL 1080p Latino 1 link mega, Aguas oscuras (2019) Web-DL 1080p Latino 1 link google drive, Aguas oscuras (2019) Web-DL 1080p Latino hd 1080p latino.
Comentarios 0