×

¿Problemas para descargar con Mozilla, EDGE? Deshabilita la opción "Abrir vinculos en una pestaña nueva" tal como lo muestra ésta imagen.

Sombras Tenebrosas (2012) REMUX 1080p Latino

425 vistas

Información de Sombras Tenebrosas (2012) REMUX 1080p Latino

Datos de la película

  • Calidad: Full 1080p
  • Audio: Español Latino AC3 5.1 BLURAY - Ingles DTS 5.1 BLURAY
  • Subtitulos: Español Latino SRT - Ingles SRT
  • Resolución: 1920x1080p
  • Formato: MKV
  • Codec: H.264
  • Encoder: CinefiloCool
  • Mediainfo: Clic para Mostrar Datos Ver
  • Sombras Tenebrosas (2012) REMUX 1080p Latino-CMHDD.mkv
    Format                      : Matroska
    Format version              : Version 4
    File size                   : 21.2 GiB
    Duration                    : 1 h 53 min
    Overall bit rate mode       : Variable
    Overall bit rate            : 26.8 Mb/s
    Movie name                  : Dark Shadows (2012) CinemaniaHDD.Net
    Encoded date                : UTC 2021-04-05 07:07:49
    Writing application         : mkvmerge v51.0.0 ('I Wish') 64-bit
    Writing library             : libebml v1.4.0 + libmatroska v1.6.2
    Attachments                 : CINEMANIAHD.png

    Video
    ID                          : 1
    Format                      : AVC
    Format/Info                 : Advanced Video Codec
    Format profile              : High@L4.1
    Format settings             : CABAC / 2 Ref Frames
    Format settings, CABAC      : Yes
    Format settings, Reference  : 2 frames
    Codec ID                    : V_MPEG4/ISO/AVC
    Duration                    : 1 h 53 min
    Bit rate mode               : Variable
    Bit rate                    : 23.9 Mb/s
    Width                       : 1 920 pixels
    Height                      : 1 080 pixels
    Display aspect ratio        : 16:9
    Frame rate mode             : Constant
    Frame rate                  : 23.976 (24000/1001) FPS
    Color space                 : YUV
    Chroma subsampling          : 4:2:0
    Bit depth                   : 8 bits
    Scan type                   : Progressive
    Bits/(Pixel*Frame)          : 0.482
    Stream size                 : 18.9 GiB (89%)
    Title                       : REMUX HD1080p [CinemaniaHDD]
    Language                    : English
    Default                     : Yes
    Forced                      : No

    Audio #1
    ID                          : 2
    Format                      : AC-3
    Format/Info                 : Audio Coding 3
    Commercial name             : Dolby Digital
    Codec ID                    : A_AC3
    Duration                    : 1 h 53 min
    Bit rate mode               : Constant
    Bit rate                    : 640 kb/s
    Channel(s)                  : 6 channels
    Channel layout              : L R C LFE Ls Rs
    Sampling rate               : 48.0 kHz
    Frame rate                  : 31.250 FPS (1536 SPF)
    Compression mode            : Lossy
    Stream size                 : 518 MiB (2%)
    Title                       : Español Latino [CinemaniaHDD]
    Language                    : Spanish
    Service kind                : Complete Main
    Default                     : Yes
    Forced                      : No

    Audio #2
    ID                          : 3
    Format                      : DTS XLL
    Format/Info                 : Digital Theater Systems
    Commercial name             : DTS-HD Master Audio
    Codec ID                    : A_DTS
    Duration                    : 1 h 53 min
    Bit rate mode               : Variable
    Bit rate                    : 2 266 kb/s
    Channel(s)                  : 6 channels
    Channel layout              : C L R Ls Rs LFE
    Sampling rate               : 48.0 kHz
    Frame rate                  : 93.750 FPS (512 SPF)
    Bit depth                   : 16 bits
    Compression mode            : Lossless
    Stream size                 : 1.79 GiB (8%)
    Title                       : Ingles [CinemaniaHDD]
    Language                    : English
    Default                     : No
    Forced                      : No

    Text #1
    ID                          : 4
    Format                      : UTF-8
    Codec ID                    : S_TEXT/UTF8
    Codec ID/Info               : UTF-8 Plain Text
    Duration                    : 1 h 9 min
    Bit rate                    : 0 b/s
    Count of elements           : 3
    Stream size                 : 139 Bytes (0%)
    Title                       : Forzados-SRT [CinemaniaHDD]
    Language                    : Spanish
    Default                     : Yes
    Forced                      : No

    Text #2
    ID                          : 5
    Format                      : UTF-8
    Codec ID                    : S_TEXT/UTF8
    Codec ID/Info               : UTF-8 Plain Text
    Duration                    : 1 h 47 min
    Bit rate                    : 52 b/s
    Count of elements           : 1226
    Stream size                 : 41.3 KiB (0%)
    Title                       : Español-SRT [CinemaniaHDD]
    Language                    : Spanish
    Default                     : No
    Forced                      : No

    Text #3
    ID                          : 6
    Format                      : UTF-8
    Codec ID                    : S_TEXT/UTF8
    Codec ID/Info               : UTF-8 Plain Text
    Duration                    : 1 h 47 min
    Bit rate                    : 49 b/s
    Count of elements           : 1229
    Stream size                 : 38.8 KiB (0%)
    Title                       : Ingles-SRT [CinemaniaHDD]
    Language                    : English
    Default                     : No
    Forced                      : No

    Menu
    00:00:00.000                : en:Chapter 01
    00:12:25.203                : en:Chapter 02
    00:19:57.780                : en:Chapter 03
    00:30:21.486                : en:Chapter 04
    00:38:55.041                : en:Chapter 05
    00:49:48.235                : en:Chapter 06
    01:00:11.066                : en:Chapter 07
    01:09:47.392                : en:Chapter 08
    01:19:36.772                : en:Chapter 09
    01:29:05.340                : en:Chapter 10
    01:39:36.888                : en:Chapter 11
    01:48:26.041                : en:Chapter 12

  • Peso: 21.2 GiB

Sinopsis

Descargar Sombras Tenebrosas (2012) REMUX 1080p Latino. En 1752, los Collins y su hijo Bárnabas zarpan de Liverpool con destino a América para librarse de la misteriosa maldición que pesa sobre su familia. Con el paso de los años, Bárnabas (Johnny Depp), un playboy impenitente, se convierte en un hombre rico y poderoso que comete el error de romperle el corazón a Angelique Bouchard (Eva Green). Ella, que es una bruja, lo condena a un destino peor que la muerte: lo convierte en vampiro y lo entierra vivo. Dos siglos después, en 1972, Bárnabas consigue salir de su tumba y se encuentra con un mundo irreconocible. Adaptación de la serie de televisión creada por Dan Curtis en 1966, que tuvo un remake en 1991.

Ficha técnica

Video trailer de la película

Enlaces de descarga

Rip de Bluray

Descargar Sombras Tenebrosas (2012) REMUX 1080p Latino




Aportes de DPeliculasHDmega la pass es:dpeliculashdmega.org Aportes de CinemaniaHD la pass es:cinemaniahdd.com
Guardado en : Comedia , Fantasía , Remux

Películas relacionadas

descargar Sombras Tenebrosas (2012) REMUX 1080p Latino Full 1080p 1080p gratis, Sombras Tenebrosas (2012) REMUX 1080p Latino Full 1080p mega 1 link, Sombras Tenebrosas (2012) REMUX 1080p Latino Full 1080p pelicula completa, descargar Sombras Tenebrosas (2012) REMUX 1080p Latino Full 1080p gratis en mega.

Sombras Tenebrosas (2012) REMUX 1080p Latino pelicula full hd, Sombras Tenebrosas (2012) REMUX 1080p Latino mega latino, Sombras Tenebrosas (2012) REMUX 1080p Latino 4k latino, Sombras Tenebrosas (2012) REMUX 1080p Latino pelicula completa, Sombras Tenebrosas (2012) REMUX 1080p Latino descargar gratis, descargar Sombras Tenebrosas (2012) REMUX 1080p Latino pelicula latino, Sombras Tenebrosas (2012) REMUX 1080p Latino 1 link mega, Sombras Tenebrosas (2012) REMUX 1080p Latino 1 link google drive, Sombras Tenebrosas (2012) REMUX 1080p Latino hd 1080p latino.
Comentarios 1
  • ocpgaiden - 09 mayo, 2021

    Gracias y saludos