Sombras Tenebrosas (2012) Full HD 1080p Latino

138 vistas
1 estrella2 estrellas3 estrellas4 estrellas5 estrellas (1 votos, promedio: 4,00 de 5)
Cargando...

Información de Sombras Tenebrosas (2012) Full HD 1080p Latino

Datos de la película

  • Calidad: Full 1080p
  • Audio: Español Latino AC3 5.1 BLURAY - Ingles DTS 5.1 BLURAY
  • Subtitulos: Español Latino SRT - Ingles SRT
  • Resolución: 1920x1080p
  • Formato: MKV
  • Codec: H.264
  • Encoder: CinefiloCool
  • Mediainfo: Clic para Mostrar Datos Ver
  • Sombras Tenebrosas (2012) Full HD 1080p Latino-CMHDD.mkv
    Format                      : Matroska
    Format version              : Version 4
    File size                   : 6.62 GiB
    Duration                    : 1 h 53 min
    Overall bit rate            : 8 385 kb/s
    Movie name                  : Dark Shadows (2012) CinemaniaHDD.Net
    Encoded date                : UTC 2021-05-06 20:55:17
    Writing application         : mkvmerge v56.1.0 ('My Friend') 64-bit
    Writing library             : libebml v1.4.2 + libmatroska v1.6.4
    Attachments                 : CINEMANIAHD.png

    Video
    ID                          : 1
    Format                      : AVC
    Format/Info                 : Advanced Video Codec
    Format profile              : High@L4.1
    Format settings             : CABAC / 4 Ref Frames
    Format settings, CABAC      : Yes
    Format settings, Reference  : 4 frames
    Codec ID                    : V_MPEG4/ISO/AVC
    Duration                    : 1 h 53 min
    Bit rate                    : 6 234 kb/s
    Width                       : 1 920 pixels
    Height                      : 1 080 pixels
    Display aspect ratio        : 16:9
    Frame rate mode             : Constant
    Frame rate                  : 23.976 (24000/1001) FPS
    Color space                 : YUV
    Chroma subsampling          : 4:2:0
    Bit depth                   : 8 bits
    Scan type                   : Progressive
    Bits/(Pixel*Frame)          : 0.125
    Stream size                 : 4.92 GiB (74%)
    Title                       : Full HD1080p [CinemaniaHDD]
    Writing library             : x264 core 157 r2935 545de2f
    Encoding settings           : cabac=1 / ref=4 / deblock=1:0:0 / analyse=0x3:0x133 / me=tesa / subme=11 / psy=1 / psy_rd=1.00:0.00 / mixed_ref=1 / me_range=24 / chroma_me=1 / trellis=2 / 8x8dct=1 / cqm=0 / deadzone=21,11 / fast_pskip=0 / chroma_qp_offset=-2 / threads=24 / lookahead_threads=6 / sliced_threads=0 / nr=0 / decimate=1 / interlaced=0 / bluray_compat=0 / constrained_intra=0 / bframes=16 / b_pyramid=2 / b_adapt=2 / b_bias=0 / direct=3 / weightb=1 / open_gop=0 / weightp=2 / keyint=240 / keyint_min=24 / scenecut=40 / intra_refresh=0 / rc_lookahead=60 / rc=crf / mbtree=1 / crf=19.0 / qcomp=0.60 / qpmin=0 / qpmax=69 / qpstep=4 / vbv_maxrate=62500 / vbv_bufsize=78125 / crf_max=0.0 / nal_hrd=none / filler=0 / ip_ratio=1.40 / aq=1:1.00
    Default                     : Yes
    Forced                      : Yes
    Color range                 : Limited
    Color primaries             : BT.709
    Transfer characteristics    : BT.709
    Matrix coefficients         : BT.709

    Audio #1
    ID                          : 2
    Format                      : AC-3
    Format/Info                 : Audio Coding 3
    Commercial name             : Dolby Digital
    Codec ID                    : A_AC3
    Duration                    : 1 h 53 min
    Bit rate mode               : Constant
    Bit rate                    : 640 kb/s
    Channel(s)                  : 6 channels
    Channel layout              : L R C LFE Ls Rs
    Sampling rate               : 48.0 kHz
    Frame rate                  : 31.250 FPS (1536 SPF)
    Compression mode            : Lossy
    Stream size                 : 518 MiB (8%)
    Title                       : Español Latino [CinemaniaHDD]
    Language                    : Spanish
    Service kind                : Complete Main
    Default                     : Yes
    Forced                      : No

    Audio #2
    ID                          : 3
    Format                      : DTS
    Format/Info                 : Digital Theater Systems
    Codec ID                    : A_DTS
    Duration                    : 1 h 53 min
    Bit rate mode               : Constant
    Bit rate                    : 1 509 kb/s
    Channel(s)                  : 6 channels
    Channel layout              : C L R Ls Rs LFE
    Sampling rate               : 48.0 kHz
    Frame rate                  : 93.750 FPS (512 SPF)
    Bit depth                   : 24 bits
    Compression mode            : Lossy
    Stream size                 : 1.19 GiB (18%)
    Title                       : Ingles [CinemaniaHDD]
    Language                    : English
    Default                     : No
    Forced                      : No

    Text #1
    ID                          : 4
    Format                      : UTF-8
    Codec ID                    : S_TEXT/UTF8
    Codec ID/Info               : UTF-8 Plain Text
    Duration                    : 1 h 9 min
    Bit rate                    : 0 b/s
    Count of elements           : 3
    Stream size                 : 139 Bytes (0%)
    Title                       : Forzados-SRT [CinemaniaHDD]
    Language                    : Spanish
    Default                     : Yes
    Forced                      : No

    Text #2
    ID                          : 5
    Format                      : UTF-8
    Codec ID                    : S_TEXT/UTF8
    Codec ID/Info               : UTF-8 Plain Text
    Duration                    : 1 h 47 min
    Bit rate                    : 52 b/s
    Count of elements           : 1226
    Stream size                 : 41.3 KiB (0%)
    Title                       : Español-SRT [CinemaniaHDD]
    Language                    : Spanish
    Default                     : No
    Forced                      : No

    Text #3
    ID                          : 6
    Format                      : UTF-8
    Codec ID                    : S_TEXT/UTF8
    Codec ID/Info               : UTF-8 Plain Text
    Duration                    : 1 h 47 min
    Bit rate                    : 49 b/s
    Count of elements           : 1229
    Stream size                 : 38.8 KiB (0%)
    Title                       : Ingles-SRT [CinemaniaHDD]
    Language                    : English
    Default                     : No
    Forced                      : No

    Menu
    00:00:00.000                : Chapter 01
    00:12:25.203                : Chapter 02
    00:19:57.780                : Chapter 03
    00:30:21.486                : Chapter 04
    00:38:55.041                : Chapter 05
    00:49:48.235                : Chapter 06
    01:00:11.066                : Chapter 07
    01:09:47.392                : Chapter 08
    01:19:36.772                : Chapter 09
    01:29:05.340                : Chapter 10
    01:39:36.888                : Chapter 11
    01:48:26.041                : Chapter 12

  • Peso: 6.62 GiB

Sinopsis

Descargar Sombras Tenebrosas (2012) Full HD 1080p Latino. En 1752, los Collins y su hijo Bárnabas zarpan de Liverpool con destino a América para librarse de la misteriosa maldición que pesa sobre su familia. Con el paso de los años, Bárnabas (Johnny Depp), un playboy impenitente, se convierte en un hombre rico y poderoso que comete el error de romperle el corazón a Angelique Bouchard (Eva Green). Ella, que es una bruja, lo condena a un destino peor que la muerte: lo convierte en vampiro y lo entierra vivo. Dos siglos después, en 1972, Bárnabas consigue salir de su tumba y se encuentra con un mundo irreconocible. Adaptación de la serie de televisión creada por Dan Curtis en 1966, que tuvo un remake en 1991.

Ficha técnica

Video trailer de la película

Enlaces de descarga

Rip de Bluray

Descargar Sombras Tenebrosas (2012) Full HD 1080p Latino




Aportes de DPeliculasHDmega la pass es:dpeliculashdmega.org Aportes de CinemaniaHD la pass es:cinemaniahdd.com

Películas relacionadas

  • Playhouse (2020) PLACEBO Full HD 1080p Latino

    Playhouse (2020) PLACEBO Full HD 1080p Latino

    2020
    Playhouse (2020) PLACEBO Full HD 1080p Latino

    0.0 1h 27m 2020

    Descargar Playhouse (2020) PLACEBO Full HD 1080p Latino. El temerario Jack Travis (William Holstead)...

    Director: Toby Watts

    Género: FULL 1080p Plateadas

    Actores: William Holstead

  • The Three Stooges (2012) REMUX 1080p Latino – CMHDD

    The Three Stooges (2012) REMUX 1080p Latino – CMHDD

    2012
    The Three Stooges (2012) REMUX 1080p Latino – CMHDD

    0.0 1h 32m 2012

    Es inspirada en la serie de 190 cortos, de unos 16 minutos, 'The Three Stooges' que estrenó Columbia...

    Director: Peter Farrelly

    Género: Comedia

    Actores: William R. Brock

  • Night Teeth (2021) NF WEB-DL 1080p Latino

    Night Teeth (2021) NF WEB-DL 1080p Latino

    2021
    Night Teeth (2021) NF WEB-DL 1080p Latino

    5.0 1h 47m 2021

    Un conductor recoge a dos mujeres que pasarán una noche de fiesta. Pero, al descubrir la verdadera naturaleza...

    Director: Adam Randall

    Género: Acción

    Actores: Tracy Brotherton

  • Stuck Together (2021) NF WEB-DL 1080p Latino

    Stuck Together (2021) NF WEB-DL 1080p Latino

    2021
    Stuck Together (2021) NF WEB-DL 1080p Latino

    0.0 2h 5m 2021

    París está en cuarentena por la pandemia, y los singulares residentes de un edificio de apartamentos...

    Director: Dany Boon

    Género: Comedia

    Actores: Yvan Attal

Sombras Tenebrosas (2012) Full HD 1080p Latino pelicula full hd, Sombras Tenebrosas (2012) Full HD 1080p Latino mega latino, Sombras Tenebrosas (2012) Full HD 1080p Latino 4k latino, Sombras Tenebrosas (2012) Full HD 1080p Latino pelicula completa, Sombras Tenebrosas (2012) Full HD 1080p Latino descargar gratis, descargar Sombras Tenebrosas (2012) Full HD 1080p Latino pelicula latino, Sombras Tenebrosas (2012) Full HD 1080p Latino 1 link mega, Sombras Tenebrosas (2012) Full HD 1080p Latino 1 link google drive, Sombras Tenebrosas (2012) Full HD 1080p Latino hd 1080p latino.
Comentarios 0