×

¿Problemas para descargar con Mozilla, EDGE? Deshabilita la opción "Abrir vinculos en una pestaña nueva" tal como lo muestra ésta imagen.

X-Men: Dark Phoenix (2019) REMUX 1080p Latino

2.072 vistas

Información de X-Men: Dark Phoenix (2019) REMUX 1080p Latino

Datos de la película

  • Calidad: Full 1080p
  • Audio: Español Latino AC3 5.1 BLURAY - DTS-HD Master 7.1 BLURAY
  • Subtitulos: Español Latino PGS - Ingles PGS
  • Resolución: 1920x1080p
  • Formato: MKV
  • Codec: H.264
  • Encoder: CinefiloCool
  • Mediainfo: Clic para Mostrar Datos Ver
  • X-Men - Dark Phoenix (2019) REMUX 1080p Latino-CMHDD.mkv
    Format                      : Matroska
    Format version              : Version 4
    File size                   : 24.0 GiB
    Duration                    : 1 h 53 min
    Overall bit rate mode       : Variable
    Overall bit rate            : 30.1 Mb/s
    Movie name                  : Dark Phoenix (2019) CinemaniaHDD.Net
    Encoded date                : UTC 2019-09-07 01:34:02
    Writing application         : mkvmerge v35.0.0 ('All The Love In The World') 64-bit
    Writing library             : libebml v1.3.9 + libmatroska v1.5.2
    Attachments                 : CINEMANIAHD.png

    Video
    ID                          : 1
    Format                      : AVC
    Format/Info                 : Advanced Video Codec
    Format profile              : High@L4.1
    Format settings             : CABAC / 4 Ref Frames
    Format settings, CABAC      : Yes
    Format settings, ReFrames   : 4 frames
    Codec ID                    : V_MPEG4/ISO/AVC
    Duration                    : 1 h 53 min
    Bit rate mode               : Variable
    Bit rate                    : 24.6 Mb/s
    Maximum bit rate            : 31.0 Mb/s
    Width                       : 1 920 pixels
    Height                      : 1 080 pixels
    Display aspect ratio        : 16:9
    Frame rate mode             : Constant
    Frame rate                  : 23.976 (24000/1001) FPS
    Color space                 : YUV
    Chroma subsampling          : 4:2:0
    Bit depth                   : 8 bits
    Scan type                   : Progressive
    Bits/(Pixel*Frame)          : 0.494
    Stream size                 : 19.6 GiB (82%)
    Title                       : Full HD1080p [REMUX]
    Default                     : Yes
    Forced                      : Yes

    Audio #1
    ID                          : 2
    Format                      : AC-3
    Format/Info                 : Audio Coding 3
    Commercial name             : Dolby Digital
    Codec ID                    : A_AC3
    Duration                    : 1 h 53 min
    Bit rate mode               : Constant
    Bit rate                    : 448 kb/s
    Channel(s)                  : 6 channels
    Channel layout              : L R C LFE Ls Rs
    Sampling rate               : 48.0 kHz
    Frame rate                  : 31.250 FPS (1536 SPF)
    Bit depth                   : 16 bits
    Compression mode            : Lossy
    Stream size                 : 365 MiB (1%)
    Title                       : AC3_5.1_Bluray_Esp
    Language                    : Spanish
    Service kind                : Complete Main
    Default                     : Yes
    Forced                      : Yes

    Audio #2
    ID                          : 3
    Format                      : DTS XLL
    Format/Info                 : Digital Theater Systems
    Commercial name             : DTS-HD Master Audio
    Codec ID                    : A_DTS
    Duration                    : 1 h 53 min
    Bit rate mode               : Variable
    Bit rate                    : 5 074 kb/s
    Channel(s)                  : 8 channels
    Channel layout              : C L R LFE Lb Rb Lss Rss
    Sampling rate               : 48.0 kHz
    Frame rate                  : 93.750 FPS (512 SPF)
    Bit depth                   : 24 bits
    Compression mode            : Lossless
    Stream size                 : 4.04 GiB (17%)
    Title                       : DTS-HD_7.1_Bluray_Eng
    Language                    : English
    Default                     : No
    Forced                      : No

    Text #1
    ID                          : 4
    Format                      : PGS
    Muxing mode                 : zlib
    Codec ID                    : S_HDMV/PGS
    Codec ID/Info               : Picture based subtitle format used on BDs/HD-DVDs
    Duration                    : 1 h 19 min
    Bit rate                    : 230 b/s
    Count of elements           : 12
    Stream size                 : 134 KiB (0%)
    Title                       : Sub_Forzados [PGS]
    Language                    : Spanish
    Default                     : Yes
    Forced                      : Yes

    Text #2
    ID                          : 5
    Format                      : PGS
    Muxing mode                 : zlib
    Codec ID                    : S_HDMV/PGS
    Codec ID/Info               : Picture based subtitle format used on BDs/HD-DVDs
    Duration                    : 1 h 52 min
    Bit rate                    : 21.0 kb/s
    Count of elements           : 2116
    Stream size                 : 17.0 MiB (0%)
    Title                       : Sub_Esp [PGS]
    Language                    : Spanish
    Default                     : No
    Forced                      : No

    Text #3
    ID                          : 6
    Format                      : PGS
    Muxing mode                 : zlib
    Codec ID                    : S_HDMV/PGS
    Codec ID/Info               : Picture based subtitle format used on BDs/HD-DVDs
    Duration                    : 1 h 53 min
    Bit rate                    : 27.8 kb/s
    Count of elements           : 2830
    Stream size                 : 22.6 MiB (0%)
    Title                       : Sub_Eng [PGS]
    Language                    : English
    Default                     : No
    Forced                      : No

    Text #4
    ID                          : 7
    Format                      : UTF-8
    Codec ID                    : S_TEXT/UTF8
    Codec ID/Info               : UTF-8 Plain Text
    Duration                    : 1 h 19 min
    Bit rate                    : 0 b/s
    Count of elements           : 6
    Stream size                 : 220 Bytes (0%)
    Title                       : Sub_Forzados
    Language                    : Spanish
    Default                     : No
    Forced                      : No

    Text #5
    ID                          : 8
    Format                      : UTF-8
    Codec ID                    : S_TEXT/UTF8
    Codec ID/Info               : UTF-8 Plain Text
    Duration                    : 1 h 52 min
    Bit rate                    : 34 b/s
    Count of elements           : 1058
    Stream size                 : 28.4 KiB (0%)
    Title                       : Sub_Esp
    Language                    : Spanish
    Default                     : No
    Forced                      : No

    Menu
    00:00:00.000                : en:Chapter 1
    00:03:28.875                : en:Chapter 2
    00:07:34.621                : en:Chapter 3
    00:11:42.201                : en:Chapter 4
    00:15:44.110                : en:Chapter 5
    00:18:37.408                : en:Chapter 6
    00:25:24.481                : en:Chapter 7
    00:31:40.357                : en:Chapter 8
    00:34:19.307                : en:Chapter 9
    00:40:07.447                : en:Chapter 10
    00:44:36.090                : en:Chapter 11
    00:49:07.778                : en:Chapter 12
    00:55:38.168                : en:Chapter 13
    00:58:57.409                : en:Chapter 14
    01:02:57.190                : en:Chapter 15
    01:10:40.111                : en:Chapter 16
    01:13:42.418                : en:Chapter 17
    01:19:33.477                : en:Chapter 18
    01:22:35.701                : en:Chapter 19
    01:25:49.061                : en:Chapter 20
    01:30:38.350                : en:Chapter 21
    01:32:48.188                : en:Chapter 22
    01:37:59.624                : en:Chapter 23
    01:45:01.045                : en:Chapter 24
     

  • Peso: 24.0 GiB

Sinopsis

Descargar X-Men: Dark Phoenix (2019) REMUX 1080p Latino. Durante una misión de rescate en el espacio, Jean casi muere al ser alcanzada por una misteriosa fuerza cósmica. Cuando regresa a casa, esta fuerza no solo la ha hecho infinitamente más poderosa, sino también mucho más inestable. Mientras lucha con la entidad que habita en su interior, Jean desata sus poderes de formas que no puede controlar ni comprender. Jean cae en una espiral fuera de control haciendo daño a aquellos que más ama y empieza a destruir los lazos que mantienen unidos a los X-Men. Mientras su familia se desmorona, deben encontrar la forma de unirse, no sólo para salvar el alma de Jean, sino también para salvar el planeta de unos alienígenas que quieren transformar esta fuerza en un arma y conquistar la galaxia.

Ficha técnica

Video trailer de la película

Enlaces de descarga

Rip de Bluray

Descargar X-Men: Dark Phoenix (2019) REMUX 1080p Latino




Aportes de DPeliculasHDmega la pass es:dpeliculashdmega.org Aportes de CinemaniaHD la pass es:cinemaniahdd.com
Guardado en : Acción , Aventura , Ciencia ficción , Remux

Películas relacionadas

  • Zola (2020) REMUX 1080p Latino

    Zola (2020) REMUX 1080p Latino

    2020
    Zola (2020) REMUX 1080p Latino

    1h 26m 2020

    Descargar Zola (2020) REMUX 1080p Latino. Una camarera accede a acompañar a una bailarina exótica,...

    Director: Sheri Davani

    Género: Comedia

    Actores: Ts Madison

  • Hocus Pocus: Abracadabra (1993) REMUX 1080p Latino

    Hocus Pocus: Abracadabra (1993) REMUX 1080p Latino

    1993
    Hocus Pocus: Abracadabra (1993) REMUX 1080p Latino

    1h 36m 1993

    Descargar Hocus Pocus: Abracadabra (1993) REMUX 1080p Latino. Tres brujas del siglo XII son invocadas...

    Director: Kenny Ortega

    Género: Comedia

    Actores: Vinessa Shaw

  • DC Liga De Supermascotas (2022) HD 1080p Latino

    DC Liga De Supermascotas (2022) HD 1080p Latino

    2022
    DC Liga De Supermascotas (2022) HD 1080p Latino

    1h 45m 2022

    Descargar DC Liga De Supermascotas (2022) HD 1080p Latino. Krypto el Superperro y Superman son amigos...

    Director: Sam Levine

    Género: Acción

    Actores: Yvette Nicole Brown

descargar X-Men: Dark Phoenix (2019) REMUX 1080p Latino Full 1080p 1080p gratis, X-Men: Dark Phoenix (2019) REMUX 1080p Latino Full 1080p mega 1 link, X-Men: Dark Phoenix (2019) REMUX 1080p Latino Full 1080p pelicula completa, descargar X-Men: Dark Phoenix (2019) REMUX 1080p Latino Full 1080p gratis en mega.

X-Men: Dark Phoenix (2019) REMUX 1080p Latino pelicula full hd, X-Men: Dark Phoenix (2019) REMUX 1080p Latino mega latino, X-Men: Dark Phoenix (2019) REMUX 1080p Latino 4k latino, X-Men: Dark Phoenix (2019) REMUX 1080p Latino pelicula completa, X-Men: Dark Phoenix (2019) REMUX 1080p Latino descargar gratis, descargar X-Men: Dark Phoenix (2019) REMUX 1080p Latino pelicula latino, X-Men: Dark Phoenix (2019) REMUX 1080p Latino 1 link mega, X-Men: Dark Phoenix (2019) REMUX 1080p Latino 1 link google drive, X-Men: Dark Phoenix (2019) REMUX 1080p Latino hd 1080p latino.
Comentarios 0