×

¿Problemas para descargar con Mozilla, EDGE? Deshabilita la opción "Abrir vinculos en una pestaña nueva" tal como lo muestra ésta imagen.

X-Men: Dark Phoenix (2019) Full HD 1080p Latino

7.896 vistas

Información de X-Men: Dark Phoenix (2019) Full HD 1080p Latino

Datos de la película

  • Calidad: Full 1080p
  • Audio: Español Latino AC3 5.1 BLURAY - Ingles DTS 5.1 BLURAY
  • Subtitulos: Español Latino PGS - Ingles PGS
  • Resolución: 1920x1080p
  • Formato: MKV
  • Codec: H.264
  • Encoder: CinefiloCool
  • Mediainfo: Clic para Mostrar Datos Ver
  • X-Men Dark Phoenix (2019) Full HD 1080p Latino-CMHDD.mkv
    Format                      : Matroska
    Format version              : Version 4
    File size                   : 5.40 GiB
    Duration                    : 1 h 53 min
    Overall bit rate            : 6 789 kb/s
    Movie name                  : Dark Phoenix (2019) CinemaniaHDD.Net
    Encoded date                : UTC 2023-03-06 21:55:43
    Writing application         : mkvmerge v56.1.0 ('My Friend') 64-bit
    Writing library             : libebml v1.4.2 + libmatroska v1.6.4
    Attachments                 : CINEMANIAHD.png

    Video
    ID                          : 1
    Format                      : AVC
    Format/Info                 : Advanced Video Codec
    Format profile              : High@L4.1
    Format settings             : CABAC / 4 Ref Frames
    Format settings, CABAC      : Yes
    Format settings, Reference  : 4 frames
    Codec ID                    : V_MPEG4/ISO/AVC
    Duration                    : 1 h 53 min
    Bit rate                    : 4 809 kb/s
    Width                       : 1 920 pixels
    Height                      : 1 080 pixels
    Display aspect ratio        : 16:9
    Frame rate mode             : Constant
    Frame rate                  : 23.976 (24000/1001) FPS
    Color space                 : YUV
    Chroma subsampling          : 4:2:0
    Bit depth                   : 8 bits
    Scan type                   : Progressive
    Bits/(Pixel*Frame)          : 0.097
    Stream size                 : 3.83 GiB (71%)
    Title                       : Full HD1080p [CinemaniaHDD]
    Writing library             : x264 core 163 r3059 b684ebe0
    Encoding settings           : cabac=1 / ref=4 / deblock=1:-1:-1 / analyse=0x3:0x133 / me=tesa / subme=11 / psy=1 / psy_rd=1.00:0.15 / mixed_ref=1 / me_range=24 / chroma_me=1 / trellis=2 / 8x8dct=1 / cqm=0 / deadzone=21,11 / fast_pskip=0 / chroma_qp_offset=-3 / threads=24 / lookahead_threads=6 / sliced_threads=0 / nr=0 / decimate=1 / interlaced=0 / bluray_compat=0 / constrained_intra=0 / bframes=16 / b_pyramid=2 / b_adapt=2 / b_bias=0 / direct=3 / weightb=1 / open_gop=0 / weightp=2 / keyint=240 / keyint_min=24 / scenecut=40 / intra_refresh=0 / rc_lookahead=60 / rc=crf / mbtree=1 / crf=19.0 / qcomp=0.60 / qpmin=0 / qpmax=69 / qpstep=4 / vbv_maxrate=62500 / vbv_bufsize=78125 / crf_max=0.0 / nal_hrd=none / filler=0 / ip_ratio=1.40 / aq=1:1.00
    Default                     : Yes
    Forced                      : Yes
    Color range                 : Limited
    Color primaries             : BT.709
    Transfer characteristics    : BT.709
    Matrix coefficients         : BT.709

    Audio #1
    ID                          : 2
    Format                      : AC-3
    Format/Info                 : Audio Coding 3
    Commercial name             : Dolby Digital
    Codec ID                    : A_AC3
    Duration                    : 1 h 53 min
    Bit rate mode               : Constant
    Bit rate                    : 448 kb/s
    Channel(s)                  : 6 channels
    Channel layout              : L R C LFE Ls Rs
    Sampling rate               : 48.0 kHz
    Frame rate                  : 31.250 FPS (1536 SPF)
    Compression mode            : Lossy
    Delay relative to video     : 13 ms
    Stream size                 : 365 MiB (7%)
    Title                       : Español Latino [CinemaniaHDD]
    Language                    : Spanish
    Service kind                : Complete Main
    Default                     : Yes
    Forced                      : Yes

    Audio #2
    ID                          : 3
    Format                      : DTS
    Format/Info                 : Digital Theater Systems
    Codec ID                    : A_DTS
    Duration                    : 1 h 53 min
    Bit rate mode               : Constant
    Bit rate                    : 1 509 kb/s
    Channel(s)                  : 6 channels
    Channel layout              : C L R Ls Rs LFE
    Sampling rate               : 48.0 kHz
    Frame rate                  : 93.750 FPS (512 SPF)
    Bit depth                   : 16 bits
    Compression mode            : Lossy
    Stream size                 : 1.20 GiB (22%)
    Title                       : Ingles [CinemaniaHDD]
    Language                    : English
    Default                     : No
    Forced                      : No

    Text #1
    ID                          : 4
    Format                      : PGS
    Muxing mode                 : zlib
    Codec ID                    : S_HDMV/PGS
    Codec ID/Info               : Picture based subtitle format used on BDs/HD-DVDs
    Duration                    : 1 h 19 min
    Bit rate                    : 230 b/s
    Count of elements           : 12
    Stream size                 : 134 KiB (0%)
    Title                       : Forzados-PGS [CinemaniaHDD]
    Language                    : Spanish
    Default                     : No
    Forced                      : No

    Text #2
    ID                          : 5
    Format                      : PGS
    Muxing mode                 : zlib
    Codec ID                    : S_HDMV/PGS
    Codec ID/Info               : Picture based subtitle format used on BDs/HD-DVDs
    Duration                    : 1 h 52 min
    Bit rate                    : 21.0 kb/s
    Count of elements           : 2116
    Stream size                 : 17.0 MiB (0%)
    Title                       : Español-PGS [CinemaniaHDD]
    Language                    : Spanish
    Default                     : No
    Forced                      : No

    Text #3
    ID                          : 6
    Format                      : PGS
    Muxing mode                 : zlib
    Codec ID                    : S_HDMV/PGS
    Codec ID/Info               : Picture based subtitle format used on BDs/HD-DVDs
    Duration                    : 1 h 53 min
    Bit rate                    : 27.8 kb/s
    Count of elements           : 2830
    Stream size                 : 22.6 MiB (0%)
    Title                       : Ingles-PGS [CinemaniaHDD]
    Language                    : English
    Default                     : No
    Forced                      : No

    Text #4
    ID                          : 7
    Format                      : UTF-8
    Codec ID                    : S_TEXT/UTF8
    Codec ID/Info               : UTF-8 Plain Text
    Duration                    : 1 h 19 min
    Bit rate                    : 0 b/s
    Count of elements           : 6
    Stream size                 : 220 Bytes (0%)
    Title                       : Forzados-SRT [CinemaniaHDD]
    Language                    : Spanish
    Default                     : Yes
    Forced                      : Yes

    Text #5
    ID                          : 8
    Format                      : UTF-8
    Codec ID                    : S_TEXT/UTF8
    Codec ID/Info               : UTF-8 Plain Text
    Duration                    : 1 h 52 min
    Bit rate                    : 34 b/s
    Count of elements           : 1058
    Stream size                 : 28.4 KiB (0%)
    Title                       : Español-SRT [CinemaniaHDD]
    Language                    : Spanish
    Default                     : No
    Forced                      : No

    Menu
    00:00:00.000                : Chapter 01
    00:03:28.542                : Chapter 02
    00:07:34.287                : Chapter 03
    00:11:41.868                : Chapter 04
    00:15:43.776                : Chapter 05
    00:18:37.074                : Chapter 06
    00:25:24.148                : Chapter 07
    00:31:40.023                : Chapter 08
    00:34:18.974                : Chapter 09
    00:40:07.113                : Chapter 10
    00:44:35.756                : Chapter 11
    00:49:07.444                : Chapter 12
    00:55:37.834                : Chapter 13
    00:58:57.075                : Chapter 14
    01:02:55.855                : Chapter 15
    01:10:39.777                : Chapter 16
    01:13:42.084                : Chapter 17
    01:19:33.143                : Chapter 18
    01:22:35.367                : Chapter 19
    01:25:48.727                : Chapter 20
    01:30:38.016                : Chapter 21
    01:32:47.854                : Chapter 22
    01:37:59.290                : Chapter 23
    01:45:00.711                : Chapter 24

  • Peso: 5.40 GiB

Sinopsis

Descargar X-Men: Dark Phoenix (2019) Full HD 1080p Latino. Durante una misión de rescate en el espacio, Jean casi muere al ser alcanzada por una misteriosa fuerza cósmica. Cuando regresa a casa, esta fuerza no solo la ha hecho infinitamente más poderosa, sino también mucho más inestable. Mientras lucha con la entidad que habita en su interior, Jean desata sus poderes de formas que no puede controlar ni comprender. Jean cae en una espiral fuera de control haciendo daño a aquellos que más ama y empieza a destruir los lazos que mantienen unidos a los X-Men. Mientras su familia se desmorona, deben encontrar la forma de unirse, no sólo para salvar el alma de Jean, sino también para salvar el planeta de unos alienígenas que quieren transformar esta fuerza en un arma y conquistar la galaxia.

RESUBIDO!!!

Ficha técnica

Video trailer de la película

Enlaces de descarga

Rip de Bluray

Descargar X-Men: Dark Phoenix (2019) Full HD 1080p Latino




Aportes de DPeliculasHDmega la pass es:dpeliculashdmega.org Aportes de CinemaniaHD la pass es:cinemaniahdd.com Aportes recientes:cinemaniahdd.net
Etiquetado en :

Películas relacionadas

descargar X-Men: Dark Phoenix (2019) Full HD 1080p Latino Full 1080p 1080p gratis, X-Men: Dark Phoenix (2019) Full HD 1080p Latino Full 1080p mega 1 link, X-Men: Dark Phoenix (2019) Full HD 1080p Latino Full 1080p pelicula completa, descargar X-Men: Dark Phoenix (2019) Full HD 1080p Latino Full 1080p gratis en mega.

X-Men: Dark Phoenix (2019) Full HD 1080p Latino pelicula full hd, X-Men: Dark Phoenix (2019) Full HD 1080p Latino mega latino, X-Men: Dark Phoenix (2019) Full HD 1080p Latino 4k latino, X-Men: Dark Phoenix (2019) Full HD 1080p Latino pelicula completa, X-Men: Dark Phoenix (2019) Full HD 1080p Latino descargar gratis, descargar X-Men: Dark Phoenix (2019) Full HD 1080p Latino pelicula latino, X-Men: Dark Phoenix (2019) Full HD 1080p Latino 1 link mega, X-Men: Dark Phoenix (2019) Full HD 1080p Latino 1 link google drive, X-Men: Dark Phoenix (2019) Full HD 1080p Latino hd 1080p latino.
Comentarios 0