×

¿Problemas para descargar con Mozilla, EDGE? Deshabilita la opción "Abrir vinculos en una pestaña nueva" tal como lo muestra ésta imagen.

Dark Harvest (2023) AMZN WEB-DL 1080p Latino

124 vistas

Información de Dark Harvest (2023) AMZN WEB-DL 1080p Latino

Datos de la película

  • Calidad: 1080p
  • Audio: Español Latino AC3 5.1 WEB-DL - Ingles AC3 5.1 WEB-DL
  • Subtitulos: Español Latino SRT- FORZADOS SRT
  • Resolución: 1920x1080
  • Formato: MKV
  • Codec: H.264
  • Encoder: cinemaniahdd
  • Mediainfo: Clic para Mostrar Datos Ver
  • Dark Harvest (2023) AMZN WEB-DL 1080p Latino [CNMNHDD].mkv
    Format                      : Matroska
    Format version              : Version 4
    File size                   : 6.43 GiB
    Duration                    : 1 h 35 min
    Overall bit rate            : 9 616 kb/s
    Movie name                  : Dark Harvest (2023) [1080p] - CinemaniaHDD.Net
    Encoded date                : UTC 2023-10-13 01:54:07
    Writing application         : mkvmerge v56.1.0 ('My Friend') 64-bit
    Writing library             : libebml v1.4.2 + libmatroska v1.6.4

    Video
    ID                          : 1
    Format                      : AVC
    Format/Info                 : Advanced Video Codec
    Format profile              : High@L4
    Format settings             : CABAC / 4 Ref Frames
    Format settings, CABAC      : Yes
    Format settings, Reference  : 4 frames
    Codec ID                    : V_MPEG4/ISO/AVC
    Duration                    : 1 h 35 min
    Bit rate mode               : Constant
    Bit rate                    : 7 693 kb/s
    Nominal bit rate            : 10 000 kb/s
    Width                       : 1 920 pixels
    Height                      : 800 pixels
    Display aspect ratio        : 2.40:1
    Frame rate mode             : Constant
    Frame rate                  : 23.976 (24000/1001) FPS
    Color space                 : YUV
    Chroma subsampling          : 4:2:0
    Bit depth                   : 8 bits
    Scan type                   : Progressive
    Bits/(Pixel*Frame)          : 0.209
    Stream size                 : 5.14 GiB (80%)
    Title                       : CinemaniaHDD
    Default                     : Yes
    Forced                      : No
    Color range                 : Limited
    Color primaries             : BT.709
    Transfer characteristics    : BT.709
    Matrix coefficients         : BT.709

    Audio #1
    ID                          : 2
    Format                      : AC-3
    Format/Info                 : Audio Coding 3
    Commercial name             : Dolby Digital
    Codec ID                    : A_AC3
    Duration                    : 1 h 35 min
    Bit rate mode               : Constant
    Bit rate                    : 640 kb/s
    Channel(s)                  : 6 channels
    Channel layout              : L R C LFE Ls Rs
    Sampling rate               : 48.0 kHz
    Frame rate                  : 31.250 FPS (1536 SPF)
    Compression mode            : Lossy
    Stream size                 : 438 MiB (7%)
    Title                       : Español Latino [CinemaniaHDD]
    Language                    : Spanish
    Service kind                : Complete Main
    Default                     : Yes
    Forced                      : No

    Audio #2
    ID                          : 3
    Format                      : E-AC-3
    Format/Info                 : Enhanced AC-3
    Commercial name             : Dolby Digital Plus
    Codec ID                    : A_EAC3
    Duration                    : 1 h 35 min
    Bit rate mode               : Constant
    Bit rate                    : 640 kb/s
    Channel(s)                  : 6 channels
    Channel layout              : L R C LFE Ls Rs
    Sampling rate               : 48.0 kHz
    Frame rate                  : 31.250 FPS (1536 SPF)
    Compression mode            : Lossy
    Stream size                 : 438 MiB (7%)
    Title                       : Español latino / E-AC3 [CinemaniaHDD]
    Language                    : Spanish
    Service kind                : Complete Main
    Default                     : No
    Forced                      : No

    Audio #3
    ID                          : 4
    Format                      : E-AC-3
    Format/Info                 : Enhanced AC-3
    Commercial name             : Dolby Digital Plus
    Codec ID                    : A_EAC3
    Duration                    : 1 h 35 min
    Bit rate mode               : Constant
    Bit rate                    : 640 kb/s
    Channel(s)                  : 6 channels
    Channel layout              : L R C LFE Ls Rs
    Sampling rate               : 48.0 kHz
    Frame rate                  : 31.250 FPS (1536 SPF)
    Compression mode            : Lossy
    Stream size                 : 438 MiB (7%)
    Title                       : Inglés [CinemaniaHDD]
    Language                    : English
    Service kind                : Complete Main
    Default                     : No
    Forced                      : No

    Text #1
    ID                          : 5
    Format                      : UTF-8
    Codec ID                    : S_TEXT/UTF8
    Codec ID/Info               : UTF-8 Plain Text
    Duration                    : 1 h 27 min
    Bit rate                    : 0 b/s
    Count of elements           : 20
    Stream size                 : 550 Bytes (0%)
    Title                       : Forzados [CinemaniaHDD]
    Language                    : Spanish
    Default                     : Yes
    Forced                      : Yes

    Text #2
    ID                          : 6
    Format                      : UTF-8
    Codec ID                    : S_TEXT/UTF8
    Codec ID/Info               : UTF-8 Plain Text
    Duration                    : 1 h 32 min
    Bit rate                    : 35 b/s
    Count of elements           : 1015
    Stream size                 : 23.9 KiB (0%)
    Title                       : Español Latino [CinemaniaHDD]
    Language                    : Spanish
    Default                     : No
    Forced                      : No

    Text #3
    ID                          : 7
    Format                      : UTF-8
    Codec ID                    : S_TEXT/UTF8
    Codec ID/Info               : UTF-8 Plain Text
    Duration                    : 1 h 27 min
    Bit rate                    : 56 b/s
    Count of elements           : 1509
    Stream size                 : 35.8 KiB (0%)
    Title                       : Inglés [CinemaniaHDD]
    Language                    : English
    Default                     : No
    Forced                      : No

     

  • Peso: 6.43 GiB

Sinopsis

En un pueblo del Medio Oeste, cada año se lleva a cabo un ritual donde despierta un ser sobrenatural llamado Jack Diente de Sierra. Surge de los campos de maíz y desafía a los adolescentes del pueblo a una batalla que determinará quién sobrevive.

Ficha técnica

  • Titulo original: Dark Harvest
  • Fecha de lanzamiento: 12-10-2023 (Canada, United States of America)
  • Director: David Slade
  • Género: Terror

Video trailer de la película

Enlaces de descarga

Rip de Bluray

Descargar Dark Harvest (2023) AMZN WEB-DL 1080p Latino




Aportes de DPeliculasHDmega la pass es:dpeliculashdmega.org Aportes de CinemaniaHD la pass es:cinemaniahdd.com Aportes recientes:cinemaniahdd.net
Guardado en : Terror

Películas relacionadas

  • Lisa Frankenstein (2024) HD 1080p Latino

    Lisa Frankenstein (2024) HD 1080p Latino

    2024
    Lisa Frankenstein (2024) HD 1080p Latino

    1h 42m 2024

    Descargar Lisa Frankenstein (2024) HD 1080p Latino. En 1989, una impopular chica de secundaria llamada...

    Director: Zelda Williams

    Género: Comedia

    Actores: Wendy Miklovic

  • Lisa Frankenstein (2024) PLACEBO Full HD 1080p Latino

    Lisa Frankenstein (2024) PLACEBO Full HD 1080p Latino

    2024
    Lisa Frankenstein (2024) PLACEBO Full HD 1080p Latino

    1h 42m 2024

    Descargar Lisa Frankenstein (2024) PLACEBO Full HD 1080p Latino. En 1989, una impopular chica de secundaria...

    Director: Zelda Williams

    Género: Comedia

    Actores: Wendy Miklovic

  • Lisa Frankenstein (2024) REMUX 1080p Latino

    Lisa Frankenstein (2024) REMUX 1080p Latino

    2024
    Lisa Frankenstein (2024) REMUX 1080p Latino

    1h 42m 2024

    Descargar Lisa Frankenstein (2024) REMUX 1080p Latino. En 1989, una impopular chica de secundaria llamada...

    Director: Zelda Williams

    Género: Comedia

    Actores: Wendy Miklovic

  • Aguas siniestras (2024) HD 1080p Latino

    Aguas siniestras (2024) HD 1080p Latino

    2024
    Aguas siniestras (2024) HD 1080p Latino

    1h 56m 2024

    Descargar Aguas siniestras (2024) HD 1080p Latino. Ray Waller, una estrella del béisbol obligada a retirarse...

    Director: Phil DeSanti

    Género: HD 1080p

    Actores: Wyatt Russell

  • Aguas siniestras (2024) PLACEBO Full HD 1080p Latino

    Aguas siniestras (2024) PLACEBO Full HD 1080p Latino

    2024
    Aguas siniestras (2024) PLACEBO Full HD 1080p Latino

    1h 56m 2024

    Descargar Aguas siniestras (2024) PLACEBO Full HD 1080p Latino. Ray Waller, una estrella del béisbol...

    Director: Phil DeSanti

    Género: FULL 1080p Plateadas

    Actores: Wyatt Russell

descargar Dark Harvest (2023) AMZN WEB-DL 1080p Latino 1080p 1080p gratis, Dark Harvest (2023) AMZN WEB-DL 1080p Latino 1080p mega 1 link, Dark Harvest (2023) AMZN WEB-DL 1080p Latino 1080p pelicula completa, descargar Dark Harvest (2023) AMZN WEB-DL 1080p Latino 1080p gratis en mega.

Dark Harvest (2023) AMZN WEB-DL 1080p Latino pelicula full hd, Dark Harvest (2023) AMZN WEB-DL 1080p Latino mega latino, Dark Harvest (2023) AMZN WEB-DL 1080p Latino 4k latino, Dark Harvest (2023) AMZN WEB-DL 1080p Latino pelicula completa, Dark Harvest (2023) AMZN WEB-DL 1080p Latino descargar gratis, descargar Dark Harvest (2023) AMZN WEB-DL 1080p Latino pelicula latino, Dark Harvest (2023) AMZN WEB-DL 1080p Latino 1 link mega, Dark Harvest (2023) AMZN WEB-DL 1080p Latino 1 link google drive, Dark Harvest (2023) AMZN WEB-DL 1080p Latino hd 1080p latino.
Comentarios 0