×

¿Problemas para descargar con Mozilla, EDGE? Deshabilita la opción "Abrir vinculos en una pestaña nueva" tal como lo muestra ésta imagen.

Ciudad en tinieblas (1998) THEATRICAL CUT REMUX 1080p Latino-CMHDD

53 vistas

Información de Ciudad en tinieblas (1998) THEATRICAL CUT REMUX 1080p Latino-CMHDD

Datos de la película

  • Calidad: Full 1080p
  • Audio: Español Latino AC3 2.0 BLURAY - Ingles DTS 5.1 BLURAY
  • Subtitulos: Español Latino PGS - Ingles PGS
  • Resolución: 1920x1080p
  • Formato: MKV
  • Codec: H.264
  • Encoder: CinefiloCool
  • Mediainfo: Clic para Mostrar Datos Ver
  • Ciudad En Tinieblas (1998) TC REMUX 1080p Latino-CMHDD.mkv Format                      : Matroska Format version              : Version 4 File size                   : 25.4 GiB Duration                    : 1 h 40 min Overall bit rate mode       : Variable Overall bit rate            : 36.2 Mb/s Movie name                  : Dark City (1998) CinemaniaHDD.Net Encoded date                : UTC 2023-02-06 05:17:06 Writing application         : mkvmerge v56.1.0 ('My Friend') 64-bit Writing library             : libebml v1.4.2 + libmatroska v1.6.4 Attachments                 : CINEMANIAHD.png Video ID                          : 1 ID in the original source m : 4113 (0x1011) Format                      : AVC Format/Info                 : Advanced Video Codec Format profile              : High@L4.1 Format settings             : CABAC / 4 Ref Frames Format settings, CABAC      : Yes Format settings, Reference  : 4 frames Codec ID                    : V_MPEG4/ISO/AVC Duration                    : 1 h 40 min Bit rate mode               : Variable Bit rate                    : 30.0 Mb/s Maximum bit rate            : 33.0 Mb/s Width                       : 1 920 pixels Height                      : 1 080 pixels Display aspect ratio        : 16:9 Frame rate mode             : Constant Frame rate                  : 23.976 (24000/1001) FPS Color space                 : YUV Chroma subsampling          : 4:2:0 Bit depth                   : 8 bits Scan type                   : Progressive Bits/(Pixel*Frame)          : 0.603 Stream size                 : 21.0 GiB (83%) Title                       : REMUX HD1080p [CinemaniaHDD] Default                     : Yes Forced                      : Yes Color range                 : Limited Color primaries             : BT.709 Transfer characteristics    : BT.709 Matrix coefficients         : BT.709 Original source medium      : Blu-ray Audio #1 ID                          : 2 ID in the original source m : 4357 (0x1105) Format                      : AC-3 Format/Info                 : Audio Coding 3 Commercial name             : Dolby Digital Codec ID                    : A_AC3 Duration                    : 1 h 40 min Bit rate mode               : Constant Bit rate                    : 224 kb/s Channel(s)                  : 2 channels Channel layout              : L R Sampling rate               : 48.0 kHz Frame rate                  : 31.250 FPS (1536 SPF) Compression mode            : Lossy Stream size                 : 161 MiB (1%) Title                       : Español Latino [CinemaniaHDD] Language                    : Spanish Service kind                : Complete Main Default                     : Yes Forced                      : Yes Original source medium      : Blu-ray Audio #2 ID                          : 3 ID in the original source m : 4352 (0x1100) Format                      : DTS XLL Format/Info                 : Digital Theater Systems Commercial name             : DTS-HD Master Audio Codec ID                    : A_DTS Duration                    : 1 h 40 min Bit rate mode               : Variable Bit rate                    : 6 046 kb/s Channel(s)                  : 8 channels Channel layout              : C L R LFE Lb Rb Lss Rss Sampling rate               : 48.0 kHz Frame rate                  : 93.750 FPS (512 SPF) Bit depth                   : 24 bits Compression mode            : Lossless Stream size                 : 4.24 GiB (17%) Title                       : Ingles [CinemaniaHDD] Language                    : English Default                     : No Forced                      : No Original source medium      : Blu-ray Text #1 ID                          : 4 ID in the original source m : 4615 (0x1207) Format                      : PGS Muxing mode                 : zlib Codec ID                    : S_HDMV/PGS Codec ID/Info               : Picture based subtitle format used on BDs/HD-DVDs Duration                    : 1 h 39 min Bit rate                    : 33.0 kb/s Count of elements           : 2356 Stream size                 : 23.6 MiB (0%) Title                       : Español-PGS [CinemaniaHDD] Language                    : Spanish Default                     : No Forced                      : No Original source medium      : Blu-ray Text #2 ID                          : 5 ID in the original source m : 4608 (0x1200) Format                      : PGS Muxing mode                 : zlib Codec ID                    : S_HDMV/PGS Codec ID/Info               : Picture based subtitle format used on BDs/HD-DVDs Duration                    : 1 h 39 min Bit rate                    : 37.5 kb/s Count of elements           : 2434 Stream size                 : 26.8 MiB (0%) Title                       : Ingles [CinemaniaHDD] Language                    : English Default                     : No Forced                      : No Original source medium      : Blu-ray Text #3 ID                          : 6 Format                      : UTF-8 Codec ID                    : S_TEXT/UTF8 Codec ID/Info               : UTF-8 Plain Text Duration                    : 1 h 26 min Bit rate                    : 0 b/s Count of elements           : 15 Stream size                 : 301 Bytes (0%) Title                       : Forzados-SRT [CinemaniaHDD] Language                    : Spanish Default                     : Yes Forced                      : Yes Text #4 ID                          : 7 Format                      : UTF-8 Codec ID                    : S_TEXT/UTF8 Codec ID/Info               : UTF-8 Plain Text Duration                    : 1 h 39 min Bit rate                    : 42 b/s Count of elements           : 1172 Stream size                 : 30.9 KiB (0%) Title                       : Español-SRT [CinemaniaHDD] Language                    : Spanish Default                     : No Forced                      : No Menu 00:00:00.000                : The Stranger 00:02:54.007                : John Murdoch 00:07:18.271                : Dr. Schreber's Office 00:11:32.525                : Automat 00:16:34.827                : He Can Tune! 00:19:45.017                : Who Am I? 00:25:00.707                : Thinking In Circles 00:29:51.206                : Tuning Begins 00:41:42.917                : Imprinted Memories 00:49:35.180                : Search For Murdoch 00:55:46.551                : Tuning Time Again 01:01:23.513                : Do You Remember? 01:06:22.395                : "Sleep" 01:09:17.987                : Dark Secrets 01:18:21.530                : Final Imprint 01:28:57.165                : To Shell Beach 01:34:02.595                : End Credits
  • Peso: 25.4 GiB

Sinopsis

Descargar Ciudad en tinieblas (1998) THEATRICAL CUT REMUX 1080p Latino-CMHDD. John Murdoch se despierta solo en un extraño hotel y comprueba que ha perdido la memoria y es perseguido como el autor de una serie de sádicos y brutales asesinatos. Mientras intenta juntar las piezas que componen el puzzle de su pasado, descubre un submundo habitado por unos seres conocidos como «los ocultos» que tienen la habilidad de adormecer a las personas y alterar a la ciudad y a sus habitantes.

Ficha técnica

Video trailer de la película

Enlaces de descarga

Rip de Bluray

Descargar Ciudad en tinieblas (1998) THEATRICAL CUT REMUX 1080p Latino-CMHDD


Aportes de DPeliculasHDmega la pass es:dpeliculashdmega.org Aportes de CinemaniaHD la pass es:cinemaniahdd.com
Guardado en : Ciencia ficción , Misterio , Remux

Películas relacionadas

  • Los Tres Mosqueteros (1993) REMUX 1080p Latino

    Los Tres Mosqueteros (1993) REMUX 1080p Latino

    1993
    Los Tres Mosqueteros (1993) REMUX 1080p Latino

    1h 45m 1993

    Descargar Los Tres Mosqueteros (1993) REMUX 1080p Latino. Un habilidoso espadachín de provincias, D´Artagnan,...

    Director: Stephen Herek

    Género: Acción

    Actores: Tim Curry

  • Sublime (2007) REMUX 1080p SUB

    Sublime (2007) REMUX 1080p SUB

    2007
    Sublime (2007) REMUX 1080p SUB

    1h 53m 2007

    Descargar Sublime (2007) REMUX 1080p SUB. George Grieves ingresa en el hospital de Mt Abbadon para hacerse...

    Director: Tony Krantz

    Género: Remux

    Actores: Tom Cavanagh

  • Jamaica bajo cero (1993) REMUX 1080p Latino

    Jamaica bajo cero (1993) REMUX 1080p Latino

    1993
    Jamaica bajo cero (1993) REMUX 1080p Latino

    1h 38m 1993

    Descargar Jamaica bajo cero (1993) REMUX 1080p Latino. Derice, Sanka, Junio Bevil y Yul son cuatro atletas...

    Director: Michael D. Moore

    Género: Aventura

    Actores: Winston Stona

descargar Ciudad en tinieblas (1998) THEATRICAL CUT REMUX 1080p Latino-CMHDD Full 1080p 1080p gratis, Ciudad en tinieblas (1998) THEATRICAL CUT REMUX 1080p Latino-CMHDD Full 1080p mega 1 link, Ciudad en tinieblas (1998) THEATRICAL CUT REMUX 1080p Latino-CMHDD Full 1080p pelicula completa, descargar Ciudad en tinieblas (1998) THEATRICAL CUT REMUX 1080p Latino-CMHDD Full 1080p gratis en mega.

Ciudad en tinieblas (1998) THEATRICAL CUT REMUX 1080p Latino-CMHDD pelicula full hd, Ciudad en tinieblas (1998) THEATRICAL CUT REMUX 1080p Latino-CMHDD mega latino, Ciudad en tinieblas (1998) THEATRICAL CUT REMUX 1080p Latino-CMHDD 4k latino, Ciudad en tinieblas (1998) THEATRICAL CUT REMUX 1080p Latino-CMHDD pelicula completa, Ciudad en tinieblas (1998) THEATRICAL CUT REMUX 1080p Latino-CMHDD descargar gratis, descargar Ciudad en tinieblas (1998) THEATRICAL CUT REMUX 1080p Latino-CMHDD pelicula latino, Ciudad en tinieblas (1998) THEATRICAL CUT REMUX 1080p Latino-CMHDD 1 link mega, Ciudad en tinieblas (1998) THEATRICAL CUT REMUX 1080p Latino-CMHDD 1 link google drive, Ciudad en tinieblas (1998) THEATRICAL CUT REMUX 1080p Latino-CMHDD hd 1080p latino.
Comentarios 0