×

¿Problemas para descargar con Mozilla, EDGE? Deshabilita la opción "Abrir vinculos en una pestaña nueva" tal como lo muestra ésta imagen.

Dark (2019) Temporada 2 NF WEB-DL 1080p Latino

2.610 vistas

Información de Dark (2019) Temporada 2 NF WEB-DL 1080p Latino

Datos de la película

  • Calidad: WEBDL
  • Audio: Español Latino AC3 5.1 Netflix - Ingles AC3 5.1 Netflix
  • Subtitulos: Español Latino SRT- FORZADOS SRT
  • Resolución: 1920X1080
  • Formato: MKV
  • Codec: H.264
  • Encoder: cinemaniahdd
  • Mediainfo: Clic para Mostrar Datos Ver
  • Dark S02E01 NF WEB-DL 1080p Latino.mkv
    Format                      : Matroska
    Format version              : Version 4
    File size                   : 2.03 GiB
    Duration                    : 53 min 56 s
    Overall bit rate mode       : Variable
    Overall bit rate            : 5 391 kb/s
    Movie name                  : Dark S02E01 - CinemaniaHDD.Net
    Encoded date                : UTC 2019-06-21 08:13:04
    Writing application         : mkvmerge v22.0.0 ('At The End Of The World') 64-bit
    Writing library             : libebml v1.3.5 + libmatroska v1.4.8

    Video
    ID                          : 1
    Format                      : AVC
    Format/Info                 : Advanced Video Codec
    Format profile              : High@L4
    Format settings             : CABAC / 4 Ref Frames
    Format settings, CABAC      : Yes
    Format settings, ReFrames   : 4 frames
    Codec ID                    : V_MPEG4/ISO/AVC
    Duration                    : 53 min 55 s
    Bit rate mode               : Variable
    Bit rate                    : 4 622 kb/s
    Maximum bit rate            : 20.0 Mb/s
    Width                       : 1 920 pixels
    Height                      : 1 080 pixels
    Display aspect ratio        : 16:9
    Frame rate mode             : Constant
    Frame rate                  : 24.000 FPS
    Color space                 : YUV
    Chroma subsampling          : 4:2:0
    Bit depth                   : 8 bits
    Scan type                   : Progressive
    Bits/(Pixel*Frame)          : 0.093
    Stream size                 : 1.74 GiB (86%)
    Title                       : CinemaniaHDD
    Writing library             : x264 core 148 r2715 7e75228
    Encoding settings           : cabac=1 / ref=4 / deblock=1:0:0 / analyse=0x3:0x111 / me=umh / subme=10 / psy=1 / psy_rd=1.00:0.00 / mixed_ref=1 / me_range=120 / chroma_me=1 / trellis=2 / 8x8dct=1 / cqm=0 / deadzone=21,11 / fast_pskip=1 / chroma_qp_offset=-2 / threads=8 / lookahead_threads=2 / sliced_threads=0 / nr=0 / decimate=1 / interlaced=0 / bluray_compat=0 / stitchable=1 / constrained_intra=0 / bframes=16 / b_pyramid=2 / b_adapt=2 / b_bias=0 / direct=3 / weightb=1 / open_gop=0 / weightp=2 / keyint=240 / keyint_min=121 / scenecut=0 / intra_refresh=0 / rc_lookahead=240 / rc=crf / mbtree=1 / crf=16.0 / qcomp=0.50 / qpmin=6 / qpmax=51 / qpstep=4 / vbv_maxrate=20000 / vbv_bufsize=25000 / crf_max=0.0 / nal_hrd=vbr / filler=0 / ip_ratio=1.40 / aq=1:0.80
    Default                     : Yes
    Forced                      : No

    Audio #1
    ID                          : 2
    Format                      : AC-3
    Format/Info                 : Audio Coding 3
    Commercial name             : Dolby Digital
    Codec ID                    : A_AC3
    Duration                    : 53 min 56 s
    Bit rate mode               : Constant
    Bit rate                    : 384 kb/s
    Channel(s)                  : 6 channels
    Channel layout              : L R C LFE Ls Rs
    Sampling rate               : 48.0 kHz
    Frame rate                  : 31.250 FPS (1536 SPF)
    Bit depth                   : 16 bits
    Compression mode            : Lossy
    Stream size                 : 148 MiB (7%)
    Title                       : Inglés [CinemaniaHDD]
    Language                    : English
    Service kind                : Complete Main
    Default                     : No
    Forced                      : No

    Audio #2
    ID                          : 3
    Format                      : AC-3
    Format/Info                 : Audio Coding 3
    Commercial name             : Dolby Digital
    Codec ID                    : A_AC3
    Duration                    : 53 min 56 s
    Bit rate mode               : Constant
    Bit rate                    : 384 kb/s
    Channel(s)                  : 6 channels
    Channel layout              : L R C LFE Ls Rs
    Sampling rate               : 48.0 kHz
    Frame rate                  : 31.250 FPS (1536 SPF)
    Bit depth                   : 16 bits
    Compression mode            : Lossy
    Stream size                 : 148 MiB (7%)
    Title                       : Español latino [CinemaniaHDD]
    Language                    : Spanish
    Service kind                : Complete Main
    Default                     : Yes
    Forced                      : No

    Text #1
    ID                          : 4
    Format                      : UTF-8
    Codec ID                    : S_TEXT/UTF8
    Codec ID/Info               : UTF-8 Plain Text
    Duration                    : 50 min 4 s
    Bit rate                    : 3 b/s
    Count of elements           : 46
    Stream size                 : 1.22 KiB (0%)
    Title                       : Forzados [CinemaniaHDD]
    Language                    : Spanish
    Default                     : Yes
    Forced                      : Yes

    Text #2
    ID                          : 5
    Format                      : UTF-8
    Codec ID                    : S_TEXT/UTF8
    Codec ID/Info               : UTF-8 Plain Text
    Duration                    : 53 min 24 s
    Bit rate                    : 28 b/s
    Count of elements           : 382
    Stream size                 : 11.0 KiB (0%)
    Title                       : Español latino [CinemaniaHDD]
    Language                    : Spanish
    Default                     : No
    Forced                      : No

  • Peso: 2.03 GiB Aprox --- TOTAL 17.7 GiB --- 8 capitulos en total.

Sinopsis

Tras la desaparición de un joven, cuatro familias desesperadas tratan de entender lo ocurrido a medida que van desvelando un retorcido misterio que abarca tres décadas… Saga familiar con un giro sobrenatural, «Dark» se sitúa en un pueblo alemán, donde dos misteriosas desapariciones dejan al descubierto las dobles vidas y las relaciones resquebrajadas entre estas cuatro familias.

Ficha técnica

Video trailer de la película

Enlaces de descarga

Rip de Bluray

Descargar Dark (2019) Temporada 2 NF WEB-DL 1080p Latino




Aportes de DPeliculasHDmega la pass es:dpeliculashdmega.org Aportes de CinemaniaHD la pass es:cinemaniahdd.com

Películas relacionadas

descargar Dark (2019) Temporada 2 NF WEB-DL 1080p Latino WEBDL 1080p gratis, Dark (2019) Temporada 2 NF WEB-DL 1080p Latino WEBDL mega 1 link, Dark (2019) Temporada 2 NF WEB-DL 1080p Latino WEBDL serie completa, descargar Dark (2019) Temporada 2 NF WEB-DL 1080p Latino WEBDL gratis en mega.

Dark (2019) Temporada 2 NF WEB-DL 1080p Latino pelicula full hd, Dark (2019) Temporada 2 NF WEB-DL 1080p Latino mega latino, Dark (2019) Temporada 2 NF WEB-DL 1080p Latino 4k latino, Dark (2019) Temporada 2 NF WEB-DL 1080p Latino pelicula completa, Dark (2019) Temporada 2 NF WEB-DL 1080p Latino descargar gratis, descargar Dark (2019) Temporada 2 NF WEB-DL 1080p Latino pelicula latino, Dark (2019) Temporada 2 NF WEB-DL 1080p Latino 1 link mega, Dark (2019) Temporada 2 NF WEB-DL 1080p Latino 1 link google drive, Dark (2019) Temporada 2 NF WEB-DL 1080p Latino hd 1080p latino.
Comentarios 2
  • SW - 21 junio, 2019

    ¡Muchas gracias por subirla!

  • dario - 21 junio, 2019

    Gracias Cinemaniahdd por la serie ,la esperaba con ansias