×

¿Problemas para descargar con Mozilla, EDGE? Deshabilita la opción "Abrir vinculos en una pestaña nueva" tal como lo muestra ésta imagen.

Dark (2019) Segunda Temporada [WEB-Rip] [NF] 4K Latino – CMHDD

740 vistas

Información de Dark (2019) Segunda Temporada [WEB-Rip] [NF] 4K Latino – CMHDD

Datos de la película

  • Calidad: 4K UHD
  • Audio: Se especifica abajo de la Sinopsis
  • Subtitulos: Español Latino SRT- FORZADOS SRT
  • Resolución: 3840x1920p
  • Formato: MKV
  • Codec: HEVC
  • Encoder: Dracarys
  • Mediainfo: Clic para Mostrar Datos Ver
  • Format                      : Matroska
    Format version              : Version 4
    File size                   : 14.3 GiB
    Duration                    : 53 min 56 s
    Overall bit rate            : 38.0 Mb/s
    Movie name                  : Dark (2019) [WEB-Rip] S02E01 4K Latino - CMHDD
    Encoded date                : UTC 2020-07-05 00:22:46
    Writing application         : mkvmerge v46.0.0 ('No Deeper Escape') 64-bit
    Writing library             : libebml v1.3.10 + libmatroska v1.5.2

    Video
    ID                          : 1
    Format                      : AVC
    Format/Info                 : Advanced Video Codec
    Format profile              : High@L5.1
    Format settings             : CABAC / 6 Ref Frames
    Format settings, CABAC      : Yes
    Format settings, Reference  : 6 frames
    Codec ID                    : V_MPEG4/ISO/AVC
    Duration                    : 53 min 56 s
    Bit rate                    : 37.0 Mb/s
    Width                       : 3 840 pixels
    Height                      : 1 920 pixels
    Display aspect ratio        : 2.000
    Frame rate mode             : Constant
    Frame rate                  : 24.000 FPS
    Color space                 : YUV
    Chroma subsampling          : 4:2:0
    Bit depth                   : 8 bits
    Scan type                   : Progressive
    Bits/(Pixel*Frame)          : 0.209
    Stream size                 : 13.9 GiB (97%)
    Writing library             : x264 core 152 r2851kMod ba24899
    Encoding settings           : cabac=1 / ref=6 / deblock=1:-3:-3 / analyse=0x3:0x133 / me=umh / subme=10 / psy=1 / fade_compensate=0.00 / psy_rd=1.00:0.00 / mixed_ref=1 / me_range=64 / chroma_me=1 / trellis=2 / 8x8dct=1 / cqm=0 / deadzone=21,11 / fast_pskip=0 / chroma_qp_offset=-2 / threads=12 / lookahead_threads=2 / sliced_threads=0 / nr=0 / decimate=0 / interlaced=0 / bluray_compat=0 / constrained_intra=0 / bframes=8 / b_pyramid=2 / b_adapt=2 / b_bias=0 / direct=3 / weightb=1 / open_gop=0 / weightp=2 / keyint=250 / keyint_min=24 / scenecut=40 / intra_refresh=0 / rc=crf / mbtree=0 / crf=17.0000 / qcomp=0.60 / qpmin=0 / qpmax=69 / qpstep=4 / ip_ratio=1.30 / pb_ratio=1.20 / aq=3:0.80
    Language                    : English
    Default                     : Yes
    Forced                      : No

    Audio #1
    ID                          : 2
    Format                      : E-AC-3
    Format/Info                 : Enhanced AC-3
    Commercial name             : Dolby Digital Plus
    Codec ID                    : A_EAC3
    Duration                    : 53 min 56 s
    Bit rate mode               : Constant
    Bit rate                    : 640 kb/s
    Channel(s)                  : 6 channels
    Channel layout              : L R C LFE Ls Rs
    Sampling rate               : 48.0 kHz
    Frame rate                  : 31.250 FPS (1536 SPF)
    Compression mode            : Lossy
    Stream size                 : 247 MiB (2%)
    Language                    : German
    Service kind                : Complete Main
    Default                     : No
    Forced                      : No

    Audio #2
    ID                          : 3
    Format                      : AC-3
    Format/Info                 : Audio Coding 3
    Commercial name             : Dolby Digital
    Codec ID                    : A_AC3
    Duration                    : 53 min 56 s
    Bit rate mode               : Constant
    Bit rate                    : 384 kb/s
    Channel(s)                  : 6 channels
    Channel layout              : L R C LFE Ls Rs
    Sampling rate               : 48.0 kHz
    Frame rate                  : 31.250 FPS (1536 SPF)
    Compression mode            : Lossy
    Stream size                 : 148 MiB (1%)
    Language                    : Spanish
    Service kind                : Complete Main
    Default                     : Yes
    Forced                      : No

    Text #1
    ID                          : 4
    Format                      : UTF-8
    Codec ID                    : S_TEXT/UTF8
    Codec ID/Info               : UTF-8 Plain Text
    Duration                    : 50 min 4 s
    Bit rate                    : 3 b/s
    Count of elements           : 46
    Stream size                 : 1.22 KiB (0%)
    Title                       : Forzados
    Language                    : Spanish
    Default                     : Yes
    Forced                      : No

    Text #2
    ID                          : 5
    Format                      : UTF-8
    Codec ID                    : S_TEXT/UTF8
    Codec ID/Info               : UTF-8 Plain Text
    Duration                    : 53 min 24 s
    Bit rate                    : 28 b/s
    Count of elements           : 382
    Stream size                 : 11.0 KiB (0%)
    Language                    : Spanish
    Default                     : No
    Forced                      : No

    Menu
    00:04:33.625                : en:Intro start
    00:05:54.834                : en:Intro end

  • Peso: 124 GiB Total

Sinopsis

Seis meses después de las desapariciones de los niños, la policía inicia un equipo de refuerzo en las investigaciones. Jonas llega a un 2052 postapocalíptico. Noah está decidido a llevar a cabo el apocalipsis y necesita que todo salga en el momento preciso.

Los niños vuelven a las cuevas con la máquina del tiempo y Jonas descubre un bucle que podría cambiar el futuro y, con planes de parar el fin de la humanidad, decide viajar a 2019. Marta, por su parte, viaja a 1954 para visitar a Ulrich tras descubrir una revelación sobre su identidad. Esta segunda entrega explora con profundidad los viajes en el tiempo, tanto al futuro como al pasado.

 

Latino: AC3 5.1 NETFLIX  –  Aleman: E-AC3 5,1 NETFLIX

Ficha técnica

Video trailer de la película

Enlaces de descarga

Rip de Bluray

Descargar Dark (2019) Segunda Temporada [WEB-Rip] [NF] 4K Latino – CMHDD




Aportes de DPeliculasHDmega la pass es:dpeliculashdmega.org Aportes de CinemaniaHD la pass es:cinemaniahdd.com Aportes recientes:cinemaniahdd.net

Películas relacionadas

descargar Dark (2019) Segunda Temporada [WEB-Rip] [NF] 4K Latino – CMHDD 4K UHD 1080p gratis, Dark (2019) Segunda Temporada [WEB-Rip] [NF] 4K Latino – CMHDD 4K UHD mega 1 link, Dark (2019) Segunda Temporada [WEB-Rip] [NF] 4K Latino – CMHDD 4K UHD serie completa, descargar Dark (2019) Segunda Temporada [WEB-Rip] [NF] 4K Latino – CMHDD 4K UHD gratis en mega.

Dark (2019) Segunda Temporada [WEB-Rip] [NF] 4K Latino – CMHDD pelicula full hd, Dark (2019) Segunda Temporada [WEB-Rip] [NF] 4K Latino – CMHDD mega latino, Dark (2019) Segunda Temporada [WEB-Rip] [NF] 4K Latino – CMHDD 4k latino, Dark (2019) Segunda Temporada [WEB-Rip] [NF] 4K Latino – CMHDD pelicula completa, Dark (2019) Segunda Temporada [WEB-Rip] [NF] 4K Latino – CMHDD descargar gratis, descargar Dark (2019) Segunda Temporada [WEB-Rip] [NF] 4K Latino – CMHDD pelicula latino, Dark (2019) Segunda Temporada [WEB-Rip] [NF] 4K Latino – CMHDD 1 link mega, Dark (2019) Segunda Temporada [WEB-Rip] [NF] 4K Latino – CMHDD 1 link google drive, Dark (2019) Segunda Temporada [WEB-Rip] [NF] 4K Latino – CMHDD hd 1080p latino.
Comentarios 0