×

¿Problemas para descargar con Mozilla, EDGE? Deshabilita la opción "Abrir vinculos en una pestaña nueva" tal como lo muestra ésta imagen.

Daredevil (2003) Director’s Cut REMUX 1080p Latino

249 vistas

Información de Daredevil (2003) Director’s Cut REMUX 1080p Latino

Datos de la película

  • Calidad: Full 1080p
  • Audio: Español Latino AC3 5.1 BLURAY - Ingles DTS 5.1 BLURAY
  • Subtitulos: Español Latino PGS - Ingles PGS
  • Resolución: 1920x1080p
  • Formato: MKV
  • Codec: H.264
  • Encoder: CinefiloCool
  • Mediainfo: Clic para Mostrar Datos Ver
  • Daredevil (2003) Director's Cut REMUX 1080p Latino-CMHDD.mkv
    Format                      : Matroska
    Format version              : Version 4
    File size                   : 27.8 GiB
    Duration                    : 2 h 13 min
    Overall bit rate mode       : Variable
    Overall bit rate            : 29.9 Mb/s
    Movie name                  : Daredevil (2003) CinemaniaHDD.Net
    Encoded date                : UTC 2021-11-18 20:41:52
    Writing application         : mkvmerge v56.1.0 ('My Friend') 64-bit
    Writing library             : libebml v1.4.2 + libmatroska v1.6.4
    Attachments                 : CINEMANIAHD.png

    Video
    ID                          : 1
    Format                      : AVC
    Format/Info                 : Advanced Video Codec
    Format profile              : High@L4.1
    Format settings             : CABAC / 4 Ref Frames
    Format settings, CABAC      : Yes
    Format settings, Reference  : 4 frames
    Codec ID                    : V_MPEG4/ISO/AVC
    Duration                    : 2 h 13 min
    Bit rate mode               : Variable
    Bit rate                    : 25.5 Mb/s
    Maximum bit rate            : 37.0 Mb/s
    Width                       : 1 920 pixels
    Height                      : 1 080 pixels
    Display aspect ratio        : 16:9
    Frame rate mode             : Constant
    Frame rate                  : 23.976 (24000/1001) FPS
    Color space                 : YUV
    Chroma subsampling          : 4:2:0
    Bit depth                   : 8 bits
    Scan type                   : Progressive
    Bits/(Pixel*Frame)          : 0.512
    Stream size                 : 23.7 GiB (85%)
    Title                       : REMUX HD1080p [CinemaniaHDD]
    Language                    : English
    Default                     : Yes
    Forced                      : Yes
    Color range                 : Limited
    Color primaries             : BT.709
    Transfer characteristics    : BT.709
    Matrix coefficients         : BT.709

    Audio #1
    ID                          : 2
    Format                      : AC-3
    Format/Info                 : Audio Coding 3
    Commercial name             : Dolby Digital
    Codec ID                    : A_AC3
    Duration                    : 2 h 13 min
    Bit rate mode               : Constant
    Bit rate                    : 448 kb/s
    Channel(s)                  : 6 channels
    Channel layout              : L R C LFE Ls Rs
    Sampling rate               : 48.0 kHz
    Frame rate                  : 31.250 FPS (1536 SPF)
    Compression mode            : Lossy
    Delay relative to video     : 23 ms
    Stream size                 : 427 MiB (1%)
    Title                       : Español Latino [CinemaniaHDD]
    Language                    : Spanish
    Service kind                : Complete Main
    Default                     : Yes
    Forced                      : Yes

    Audio #2
    ID                          : 3
    Format                      : DTS XLL
    Format/Info                 : Digital Theater Systems
    Commercial name             : DTS-HD Master Audio
    Codec ID                    : A_DTS
    Duration                    : 2 h 13 min
    Bit rate mode               : Variable
    Bit rate                    : 3 977 kb/s
    Channel(s)                  : 6 channels
    Channel layout              : C L R Ls Rs LFE
    Sampling rate               : 48.0 kHz
    Frame rate                  : 93.750 FPS (512 SPF)
    Bit depth                   : 24 bits
    Compression mode            : Lossless
    Stream size                 : 3.70 GiB (13%)
    Title                       : Ingles [CinemaniaHDD]
    Language                    : English
    Default                     : No
    Forced                      : No

    Text #1
    ID                          : 4
    Format                      : PGS
    Muxing mode                 : zlib
    Codec ID                    : S_HDMV/PGS
    Codec ID/Info               : Picture based subtitle format used on BDs/HD-DVDs
    Duration                    : 1 h 56 min
    Bit rate                    : 225 b/s
    Count of elements           : 16
    Stream size                 : 193 KiB (0%)
    Title                       : Forzados-PGS [CinemaniaHDD]
    Language                    : Spanish
    Default                     : No
    Forced                      : No

    Text #2
    ID                          : 5
    Format                      : PGS
    Muxing mode                 : zlib
    Codec ID                    : S_HDMV/PGS
    Codec ID/Info               : Picture based subtitle format used on BDs/HD-DVDs
    Duration                    : 2 h 1 min
    Bit rate                    : 34.5 kb/s
    Count of elements           : 2047
    Stream size                 : 30.0 MiB (0%)
    Title                       : Español-PGS [CinemaniaHDD]
    Language                    : Spanish
    Default                     : No
    Forced                      : No

    Text #3
    ID                          : 6
    Format                      : PGS
    Muxing mode                 : zlib
    Codec ID                    : S_HDMV/PGS
    Codec ID/Info               : Picture based subtitle format used on BDs/HD-DVDs
    Duration                    : 2 h 4 min
    Bit rate                    : 24.9 kb/s
    Count of elements           : 2321
    Stream size                 : 22.1 MiB (0%)
    Title                       : Ingles-PGS [CinemaniaHDD]
    Language                    : English
    Default                     : No
    Forced                      : No

    Text #4
    ID                          : 7
    Format                      : UTF-8
    Codec ID                    : S_TEXT/UTF8
    Codec ID/Info               : UTF-8 Plain Text
    Duration                    : 1 h 56 min
    Bit rate                    : 0 b/s
    Count of elements           : 8
    Stream size                 : 170 Bytes (0%)
    Title                       : Forzados-SRT [CinemaniaHDD]
    Language                    : Spanish
    Default                     : Yes
    Forced                      : Yes

    Text #5
    ID                          : 8
    Format                      : UTF-8
    Codec ID                    : S_TEXT/UTF8
    Codec ID/Info               : UTF-8 Plain Text
    Duration                    : 2 h 4 min
    Bit rate                    : 37 b/s
    Count of elements           : 1027
    Stream size                 : 34.4 KiB (0%)
    Title                       : Español-SRT [CinemaniaHDD]
    Language                    : Spanish
    Default                     : No
    Forced                      : No

    Menu
    00:00:00.000                : Chapter 01
    00:02:24.227                : Chapter 02
    00:05:18.568                : Chapter 03
    00:08:13.367                : Chapter 04
    00:12:18.863                : Chapter 05
    00:15:43.525                : Chapter 06
    00:20:38.070                : Chapter 07
    00:24:09.823                : Chapter 08
    00:32:05.923                : Chapter 09
    00:33:13.908                : Chapter 10
    00:37:27.453                : Chapter 11
    00:39:41.170                : Chapter 12
    00:41:37.661                : Chapter 13
    00:45:07.287                : Chapter 14
    00:47:49.825                : Chapter 15
    00:49:46.525                : Chapter 16
    00:53:11.813                : Chapter 17
    00:57:23.189                : Chapter 18
    00:59:44.997                : Chapter 19
    01:04:19.772                : Chapter 20
    01:06:27.066                : Chapter 21
    01:10:54.375                : Chapter 22
    01:18:07.098                : Chapter 23
    01:22:25.857                : Chapter 24
    01:23:59.367                : Chapter 25
    01:25:54.816                : Chapter 26
    01:28:39.730                : Chapter 27
    01:30:09.737                : Chapter 28
    01:32:22.745                : Chapter 29
    01:33:39.071                : Chapter 30
    01:36:30.617                : Chapter 31
    01:40:31.650                : Chapter 32
    01:44:53.119                : Chapter 33
    01:49:03.411                : Chapter 34
    01:50:29.581                : Chapter 35
    01:52:29.409                : Chapter 36
    01:53:37.727                : Chapter 37
    01:59:41.882                : Chapter 38
    02:00:14.457                : Chapter 39
    02:02:04.733                : Chapter 40
    02:03:32.321                : Chapter 41
    02:04:33.674                : Chapter 42
    02:05:22.514                : Chapter 43
    02:06:49.351                : Chapter 44

  • Peso: 27.8 GiB

Sinopsis

Descargar Daredevil (2003) Director’s Cut REMUX 1080p Latino. Adaptación del legendario héroe de cómic de Marvel -conocido como el Hombre sin Miedo-. El abogado Matt Murdock es ciego a causa de un residuo radioactivo, pero sus otros cuatro sentidos están especialmente agudizados. De día, Murdock representa a los oprimidos. Por la noche, es Daredevil, un vigilante enmascarado que acecha las oscuras calles de la ciudad, un implacable vengador de justicia.

Disponible Solo Para VIP!!!

Ficha técnica

Video trailer de la película

Enlaces de descarga

Rip de Bluray

Descargar Daredevil (2003) Director’s Cut REMUX 1080p Latino


Aportes de DPeliculasHDmega la pass es:dpeliculashdmega.org Aportes de CinemaniaHD la pass es:cinemaniahdd.com

Películas relacionadas

descargar Daredevil (2003) Director’s Cut REMUX 1080p Latino Full 1080p 1080p gratis, Daredevil (2003) Director’s Cut REMUX 1080p Latino Full 1080p mega 1 link, Daredevil (2003) Director’s Cut REMUX 1080p Latino Full 1080p pelicula completa, descargar Daredevil (2003) Director’s Cut REMUX 1080p Latino Full 1080p gratis en mega.

Daredevil (2003) Director’s Cut REMUX 1080p Latino pelicula full hd, Daredevil (2003) Director’s Cut REMUX 1080p Latino mega latino, Daredevil (2003) Director’s Cut REMUX 1080p Latino 4k latino, Daredevil (2003) Director’s Cut REMUX 1080p Latino pelicula completa, Daredevil (2003) Director’s Cut REMUX 1080p Latino descargar gratis, descargar Daredevil (2003) Director’s Cut REMUX 1080p Latino pelicula latino, Daredevil (2003) Director’s Cut REMUX 1080p Latino 1 link mega, Daredevil (2003) Director’s Cut REMUX 1080p Latino 1 link google drive, Daredevil (2003) Director’s Cut REMUX 1080p Latino hd 1080p latino.
Comentarios 0