×

¿Problemas para descargar con Mozilla, EDGE? Deshabilita la opción "Abrir vinculos en una pestaña nueva" tal como lo muestra ésta imagen.

Damisela (2018) 1080p Latino

283 vistas

Información de Damisela (2018) 1080p Latino

Datos de la película

  • Calidad: 1080p
  • Audio: Español Latino AC3 5.1 Netflix - Ingles AC3 5.1 BLURAY
  • Subtitulos: Español Latino SRT - Ingles SRT
  • Resolución: 1920x804p
  • Formato: MKV
  • Codec: H.264
  • Encoder: CinefiloCool
  • Mediainfo: Clic para Mostrar Datos Ver
  • Damisela (2018) 1080p Latino-CMHDD.mkv
    Format                      : Matroska
    Format version              : Version 4
    File size                   : 3.57 GiB
    Duration                    : 1 h 53 min
    Overall bit rate            : 4 501 kb/s
    Movie name                  : Damsel (2018) CinemaniaHDD.Net
    Encoded date                : UTC 2021-03-14 05:17:19
    Writing application         : mkvmerge v51.0.0 ('I Wish') 64-bit
    Writing library             : libebml v1.4.0 + libmatroska v1.6.2
    Attachments                 : CINEMANIAHD.png

    Video
    ID                          : 1
    Format                      : AVC
    Format/Info                 : Advanced Video Codec
    Format profile              : High@L4.1
    Format settings             : CABAC / 5 Ref Frames
    Format settings, CABAC      : Yes
    Format settings, Reference  : 5 frames
    Codec ID                    : V_MPEG4/ISO/AVC
    Duration                    : 1 h 53 min
    Bit rate                    : 3 500 kb/s
    Width                       : 1 920 pixels
    Height                      : 804 pixels
    Display aspect ratio        : 2.40:1
    Frame rate mode             : Constant
    Frame rate                  : 23.976 (24000/1001) FPS
    Color space                 : YUV
    Chroma subsampling          : 4:2:0
    Bit depth                   : 8 bits
    Scan type                   : Progressive
    Bits/(Pixel*Frame)          : 0.095
    Stream size                 : 2.71 GiB (76%)
    Title                       : HD1080p [CinemaniaHDD]
    Writing library             : x264 core 157 r2935 545de2f
    Encoding settings           : cabac=1 / ref=5 / deblock=1:-1:-1 / analyse=0x3:0x133 / me=umh / subme=9 / psy=1 / psy_rd=1.00:0.15 / mixed_ref=1 / me_range=16 / chroma_me=1 / trellis=2 / 8x8dct=1 / cqm=0 / deadzone=21,11 / fast_pskip=1 / chroma_qp_offset=-3 / threads=24 / lookahead_threads=2 / sliced_threads=0 / nr=0 / decimate=1 / interlaced=0 / bluray_compat=0 / constrained_intra=0 / bframes=3 / b_pyramid=2 / b_adapt=2 / b_bias=0 / direct=3 / weightb=1 / open_gop=0 / weightp=2 / keyint=240 / keyint_min=24 / scenecut=40 / intra_refresh=0 / rc_lookahead=60 / rc=abr / mbtree=1 / bitrate=3500 / ratetol=1.0 / qcomp=0.60 / qpmin=0 / qpmax=69 / qpstep=4 / vbv_maxrate=62500 / vbv_bufsize=78125 / nal_hrd=none / filler=0 / ip_ratio=1.40 / aq=1:1.00
    Default                     : Yes
    Forced                      : Yes
    Color range                 : Limited
    Color primaries             : BT.709
    Transfer characteristics    : BT.709
    Matrix coefficients         : BT.709

    Audio #1
    ID                          : 2
    Format                      : AC-3
    Format/Info                 : Audio Coding 3
    Commercial name             : Dolby Digital
    Codec ID                    : A_AC3
    Duration                    : 1 h 53 min
    Bit rate mode               : Constant
    Bit rate                    : 640 kb/s
    Channel(s)                  : 6 channels
    Channel layout              : L R C LFE Ls Rs
    Sampling rate               : 48.0 kHz
    Frame rate                  : 31.250 FPS (1536 SPF)
    Compression mode            : Lossy
    Delay relative to video     : 398 ms
    Stream size                 : 520 MiB (14%)
    Title                       : Español Latino [CinemaniaHDD]
    Language                    : Spanish
    Service kind                : Complete Main
    Default                     : Yes
    Forced                      : Yes

    Audio #2
    ID                          : 3
    Format                      : AC-3
    Format/Info                 : Audio Coding 3
    Commercial name             : Dolby Digital
    Codec ID                    : A_AC3
    Duration                    : 1 h 53 min
    Bit rate mode               : Constant
    Bit rate                    : 448 kb/s
    Channel(s)                  : 6 channels
    Channel layout              : L R C LFE Ls Rs
    Sampling rate               : 48.0 kHz
    Frame rate                  : 31.250 FPS (1536 SPF)
    Compression mode            : Lossy
    Delay relative to video     : -88 ms
    Stream size                 : 364 MiB (10%)
    Title                       : Ingles [CinemaniaHDD]
    Language                    : English
    Service kind                : Complete Main
    Default                     : No
    Forced                      : No

    Text #1
    ID                          : 4
    Format                      : UTF-8
    Codec ID                    : S_TEXT/UTF8
    Codec ID/Info               : UTF-8 Plain Text
    Duration                    : 21 min 18 s
    Bit rate                    : 4 b/s
    Count of elements           : 27
    Stream size                 : 793 Bytes (0%)
    Title                       : Forzados-SRT [CinemaniaHDD]
    Language                    : Spanish
    Default                     : Yes
    Forced                      : Yes

    Text #2
    ID                          : 5
    Format                      : UTF-8
    Codec ID                    : S_TEXT/UTF8
    Codec ID/Info               : UTF-8 Plain Text
    Duration                    : 1 h 46 min
    Bit rate                    : 31 b/s
    Count of elements           : 782
    Stream size                 : 24.5 KiB (0%)
    Title                       : Español-SRT [CinemaniaHDD]
    Language                    : Spanish
    Default                     : No
    Forced                      : No

    Text #3
    ID                          : 6
    Format                      : UTF-8
    Codec ID                    : S_TEXT/UTF8
    Codec ID/Info               : UTF-8 Plain Text
    Duration                    : 1 h 46 min
    Bit rate                    : 34 b/s
    Count of elements           : 804
    Stream size                 : 26.9 KiB (0%)
    Title                       : Ingles-SRT [CinemaniaHDD]
    Language                    : English
    Default                     : No
    Forced                      : No

    Menu
    00:00:00.000                : en:Chapter 01
    00:08:49.654                : en:Chapter 02
    00:17:58.952                : en:Chapter 03
    00:22:05.782                : en:Chapter 04
    00:32:49.384                : en:Chapter 05
    00:42:13.989                : en:Chapter 06
    00:50:24.604                : en:Chapter 07
    01:00:40.178                : en:Chapter 08
    01:11:06.595                : en:Chapter 09
    01:22:24.898                : en:Chapter 10
    01:33:54.170                : en:Chapter 11
    01:41:26.997                : en:Chapter 12

  • Peso: 3.57 GiB

Sinopsis

Descargar Damisela (2018) 1080p Latino. La película narra la historia de Samuel (Robert Pattinson), un joven de negocios que comienza un viaje por el oeste de Estados Unidos para reencontrarse con su prometida Penélope (Mia Wasikowska). El camino que trendrán que atravesar será más complicado de lo que parecía.

Ficha técnica

Video trailer de la película

Enlaces de descarga

Rip de Bluray

Descargar Damisela (2018) 1080p Latino




Aportes de DPeliculasHDmega la pass es:dpeliculashdmega.org Aportes de CinemaniaHD la pass es:cinemaniahdd.com
Guardado en : Comedia , HD 1080p , Western

Películas relacionadas

  • El discurso del Rey (2010) 1080p Latino

    El discurso del Rey (2010) 1080p Latino

    2010
    El discurso del Rey (2010) 1080p Latino

    1h 58m 2010

    Descargar El discurso del Rey (2010) 1080p Latino. El duque de York se convirtió en rey de Gran Bretaña...

    Director: Tom Hooper

    Género: Drama

    Actores: Tony Earnshaw

  • Detective Knight: Redencion (2022) HD 1080p Latino

    Detective Knight: Redencion (2022) HD 1080p Latino

    2022
    Detective Knight: Redencion (2022) HD 1080p Latino

    1h 33m 2022

    Descargar Detective Knight: Redencion (2022) HD 1080p Latino. El detective James Knight se encuentra...

    Director: Edward Drake

    Género: Acción

    Actores: Paul Johansson

  • Detective Knight: Sin Piedad (2022) HD 1080p Latino

    Detective Knight: Sin Piedad (2022) HD 1080p Latino

    2022
    Detective Knight: Sin Piedad (2022) HD 1080p Latino

    1h 45m 2022

    Descargar Detective Knight: Sin Piedad (2022) HD 1080p Latino. James Knight es un veterano detective...

    Director: Edward Drake

    Género: Acción

    Actores: Sarah May Sommers

  • 1923 (2023) Temporada 1 AMZN WEB-DL 1080p Latino

    1923 (2023) Temporada 1 AMZN WEB-DL 1080p Latino

    2022
    1923 (2023) Temporada 1 AMZN WEB-DL 1080p Latino

    0h 0m 2022

    Sigue a una nueva generación de la familia Dutton a principios del siglo XX cuando las pandemias, la...

    Director: Taylor Sheridan

    Género: Drama

    Actores: Michelle Randolph

descargar Damisela (2018) 1080p Latino 1080p 1080p gratis, Damisela (2018) 1080p Latino 1080p mega 1 link, Damisela (2018) 1080p Latino 1080p pelicula completa, descargar Damisela (2018) 1080p Latino 1080p gratis en mega.

Damisela (2018) 1080p Latino pelicula full hd, Damisela (2018) 1080p Latino mega latino, Damisela (2018) 1080p Latino 4k latino, Damisela (2018) 1080p Latino pelicula completa, Damisela (2018) 1080p Latino descargar gratis, descargar Damisela (2018) 1080p Latino pelicula latino, Damisela (2018) 1080p Latino 1 link mega, Damisela (2018) 1080p Latino 1 link google drive, Damisela (2018) 1080p Latino hd 1080p latino.
Comentarios 0