×

¿Problemas para descargar con Mozilla, EDGE? Deshabilita la opción "Abrir vinculos en una pestaña nueva" tal como lo muestra ésta imagen.

Dahmer – Monster: The Jeffrey Dahmer Story (2022) NF WEB-DL 1080p Latino

103 vistas

Información de Dahmer – Monster: The Jeffrey Dahmer Story (2022) NF WEB-DL 1080p Latino

Datos de la película

  • Calidad: 1080p
  • Audio: Español Latino AC3 5.1 WEB-DL - Ingles AC3 5.1 WEB-DL
  • Subtitulos: FORZADOS SRT
  • Resolución: 1920x1080
  • Formato: MKV
  • Codec: H.264
  • Encoder:
  • Mediainfo: Clic para Mostrar Datos Ver
  • DAHMER T01E01 NF WEB-DL 1080p Latino.mkv
    Format                      : Matroska
    Format version              : Version 4
    File size                   : 2.69 GiB
    Duration                    : 49 min 56 s
    Overall bit rate mode       : Variable
    Overall bit rate            : 7 698 kb/s
    Movie name                  : DAHMER S01E01 - Episodio uno [1080p]
    Encoded date                : UTC 2022-10-02 01:21:44
    Writing application         : mkvmerge v59.0.0 ('Shining Star') 64-bit
    Writing library             : libebml v1.4.2 + libmatroska v1.6.4

    Video
    ID                          : 1
    Format                      : AVC
    Format/Info                 : Advanced Video Codec
    Format profile              : High@L4
    Format settings             : CABAC / 4 Ref Frames
    Format settings, CABAC      : Yes
    Format settings, Reference  : 4 frames
    Codec ID                    : V_MPEG4/ISO/AVC
    Duration                    : 49 min 55 s
    Bit rate mode               : Variable
    Bit rate                    : 6 929 kb/s
    Maximum bit rate            : 20.0 Mb/s
    Width                       : 1 920 pixels
    Height                      : 1 080 pixels
    Display aspect ratio        : 16:9
    Frame rate mode             : Constant
    Frame rate                  : 23.976 (24000/1001) FPS
    Color space                 : YUV
    Chroma subsampling          : 4:2:0
    Bit depth                   : 8 bits
    Scan type                   : Progressive
    Bits/(Pixel*Frame)          : 0.139
    Stream size                 : 2.42 GiB (90%)
    Title                       : CinemaniaHDD
    Writing library             : x264 core 148 r2727 7d026e8
    Encoding settings           : cabac=1 / ref=4 / deblock=1:0:0 / analyse=0x3:0x111 / me=umh / subme=10 / psy=1 / psy_rd=1.00:0.00 / mixed_ref=1 / me_range=120 / chroma_me=1 / trellis=2 / 8x8dct=1 / cqm=0 / deadzone=21,11 / fast_pskip=1 / chroma_qp_offset=-2 / threads=8 / lookahead_threads=2 / sliced_threads=0 / nr=0 / decimate=1 / interlaced=0 / bluray_compat=0 / stitchable=1 / constrained_intra=0 / bframes=16 / b_pyramid=2 / b_adapt=2 / b_bias=0 / direct=3 / weightb=1 / open_gop=0 / weightp=2 / keyint=240 / keyint_min=121 / scenecut=0 / intra_refresh=0 / rc_lookahead=240 / rc=crf / mbtree=1 / crf=16.0 / qcomp=0.50 / qpmin=6 / qpmax=51 / qpstep=4 / vbv_maxrate=20000 / vbv_bufsize=25000 / crf_max=0.0 / nal_hrd=vbr / filler=0 / ip_ratio=1.40 / aq=1:0.80
    Default                     : Yes
    Forced                      : No

    Audio #1
    ID                          : 2
    Format                      : AC-3
    Format/Info                 : Audio Coding 3
    Commercial name             : Dolby Digital
    Codec ID                    : A_AC3
    Duration                    : 49 min 56 s
    Bit rate mode               : Constant
    Bit rate                    : 384 kb/s
    Channel(s)                  : 6 channels
    Channel layout              : L R C LFE Ls Rs
    Sampling rate               : 48.0 kHz
    Frame rate                  : 31.250 FPS (1536 SPF)
    Compression mode            : Lossy
    Stream size                 : 137 MiB (5%)
    Title                       : Español latino [CinemaniaHDD]
    Language                    : Spanish
    Service kind                : Complete Main
    Default                     : Yes
    Forced                      : No

    Audio #2
    ID                          : 3
    Format                      : AC-3
    Format/Info                 : Audio Coding 3
    Commercial name             : Dolby Digital
    Codec ID                    : A_AC3
    Duration                    : 49 min 56 s
    Bit rate mode               : Constant
    Bit rate                    : 384 kb/s
    Channel(s)                  : 6 channels
    Channel layout              : L R C LFE Ls Rs
    Sampling rate               : 48.0 kHz
    Frame rate                  : 31.250 FPS (1536 SPF)
    Compression mode            : Lossy
    Stream size                 : 137 MiB (5%)
    Title                       : Inglés [CinemaniaHDD]
    Language                    : English
    Service kind                : Complete Main
    Default                     : No
    Forced                      : No

    Text
    ID                          : 4
    Format                      : UTF-8
    Codec ID                    : S_TEXT/UTF8
    Codec ID/Info               : UTF-8 Plain Text
    Duration                    : 47 min 58 s
    Bit rate                    : 0 b/s
    Count of elements           : 5
    Stream size                 : 167 Bytes (0%)
    Title                       : Forzados [CinemaniaHDD]
    Language                    : Spanish
    Default                     : No
    Forced                      : Yes

     

  • Peso: 2.69 GiB Aprox ---- 28.1 GiB in 10 Chapters.

Sinopsis

A lo largo de más de 10 años, el asesino convicto Jeffrey Dahmer acabó con la vida de 17 chicos y hombres jóvenes. ¿Pero cómo logró eludir a la justicia tanto tiempo?

Ficha técnica

Video trailer de la película

Enlaces de descarga

Rip de Bluray

Descargar Dahmer – Monster: The Jeffrey Dahmer Story (2022) NF WEB-DL 1080p Latino




Aportes de DPeliculasHDmega la pass es:dpeliculashdmega.org Aportes de CinemaniaHD la pass es:cinemaniahdd.com
Guardado en : Crimen , Drama , Netflix

Películas relacionadas

descargar Dahmer – Monster: The Jeffrey Dahmer Story (2022) NF WEB-DL 1080p Latino 1080p 1080p gratis, Dahmer – Monster: The Jeffrey Dahmer Story (2022) NF WEB-DL 1080p Latino 1080p mega 1 link, Dahmer – Monster: The Jeffrey Dahmer Story (2022) NF WEB-DL 1080p Latino 1080p pelicula completa, descargar Dahmer – Monster: The Jeffrey Dahmer Story (2022) NF WEB-DL 1080p Latino 1080p gratis en mega.

Dahmer – Monster: The Jeffrey Dahmer Story (2022) NF WEB-DL 1080p Latino pelicula full hd, Dahmer – Monster: The Jeffrey Dahmer Story (2022) NF WEB-DL 1080p Latino mega latino, Dahmer – Monster: The Jeffrey Dahmer Story (2022) NF WEB-DL 1080p Latino 4k latino, Dahmer – Monster: The Jeffrey Dahmer Story (2022) NF WEB-DL 1080p Latino pelicula completa, Dahmer – Monster: The Jeffrey Dahmer Story (2022) NF WEB-DL 1080p Latino descargar gratis, descargar Dahmer – Monster: The Jeffrey Dahmer Story (2022) NF WEB-DL 1080p Latino pelicula latino, Dahmer – Monster: The Jeffrey Dahmer Story (2022) NF WEB-DL 1080p Latino 1 link mega, Dahmer – Monster: The Jeffrey Dahmer Story (2022) NF WEB-DL 1080p Latino 1 link google drive, Dahmer – Monster: The Jeffrey Dahmer Story (2022) NF WEB-DL 1080p Latino hd 1080p latino.
Comentarios 0