×

¿Problemas para descargar con Mozilla, EDGE? Deshabilita la opción "Abrir vinculos en una pestaña nueva" tal como lo muestra ésta imagen.

Guerra de Papás (2015) REMUX 1080p Latino-CMHDD

147 vistas

Información de Guerra de Papás (2015) REMUX 1080p Latino-CMHDD

Datos de la película

  • Calidad: Full 1080p
  • Audio: Español Latino AC3 5.1 BLURAY - Ingles DTS-HD Master 7.1 BLURAY
  • Subtitulos: Español Latino PGS - Ingles PGS
  • Resolución: 1920x1080p
  • Formato: MKV
  • Codec: H.264
  • Encoder: CinefiloCool
  • Mediainfo: Clic para Mostrar Datos Ver
  • Daddys.Home.2015.Bluray.REMUX.1080p.AVC.Latino-CC@CMHDD.mkv
    Format                      : Matroska
    Format version              : Version 4
    File size                   : 22.8 GiB
    Duration                    : 1 h 36 min
    Overall bit rate mode       : Variable
    Overall bit rate            : 33.9 Mb/s
    Movie name                  : Daddy's Home (2015) CinemaniaHDD.Net
    Encoded date                : UTC 2024-02-14 07:06:31
    Writing application         : mkvmerge v56.1.0 ('My Friend') 64-bit
    Writing library             : libebml v1.4.2 + libmatroska v1.6.4
    Cover                       : Yes
    Attachments                 : CINEMANIAHD.png / cover.jpg

    Video
    ID                          : 1
    ID in the original source m : 4113 (0x1011)
    Format                      : AVC
    Format/Info                 : Advanced Video Codec
    Format profile              : High@L4.1
    Format settings             : CABAC / 4 Ref Frames
    Format settings, CABAC      : Yes
    Format settings, Reference  : 4 frames
    Codec ID                    : V_MPEG4/ISO/AVC
    Duration                    : 1 h 36 min
    Bit rate mode               : Variable
    Bit rate                    : 28.3 Mb/s
    Maximum bit rate            : 30.4 Mb/s
    Width                       : 1 920 pixels
    Height                      : 1 080 pixels
    Display aspect ratio        : 16:9
    Frame rate mode             : Constant
    Frame rate                  : 23.976 (24000/1001) FPS
    Color space                 : YUV
    Chroma subsampling          : 4:2:0
    Bit depth                   : 8 bits
    Scan type                   : Progressive
    Bits/(Pixel*Frame)          : 0.570
    Stream size                 : 19.0 GiB (84%)
    Title                       : REMUX HD1080p [CinemaniaHDD]
    Default                     : Yes
    Forced                      : Yes
    Original source medium      : Blu-ray

    Audio #1
    ID                          : 2
    ID in the original source m : 4354 (0x1102)
    Format                      : AC-3
    Format/Info                 : Audio Coding 3
    Commercial name             : Dolby Digital
    Codec ID                    : A_AC3
    Duration                    : 1 h 36 min
    Bit rate mode               : Constant
    Bit rate                    : 640 kb/s
    Channel(s)                  : 6 channels
    Channel layout              : L R C LFE Ls Rs
    Sampling rate               : 48.0 kHz
    Frame rate                  : 31.250 FPS (1536 SPF)
    Compression mode            : Lossy
    Stream size                 : 440 MiB (2%)
    Title                       : Español Latino [CinemaniaHDD]
    Language                    : Spanish
    Service kind                : Complete Main
    Default                     : Yes
    Forced                      : Yes
    Original source medium      : Blu-ray

    Audio #2
    ID                          : 3
    ID in the original source m : 4352 (0x1100)
    Format                      : DTS XLL X
    Format/Info                 : Digital Theater Systems
    Commercial name             : DTS-HD Master Audio
    Codec ID                    : A_DTS
    Duration                    : 1 h 36 min
    Bit rate mode               : Variable
    Bit rate                    : 4 909 kb/s
    Channel(s)                  : 8 channels
    Channel(s)_Original         : Object Based
    ChannelLayout_Original      : Object Based
    Sampling rate               : 48.0 kHz
    Frame rate                  : 93.750 FPS (512 SPF)
    Bit depth                   : 24 bits
    Stream size                 : 3.29 GiB (14%)
    Title                       : Ingles [CinemaniaHDD]
    Language                    : English
    Default                     : No
    Forced                      : No
    Original source medium      : Blu-ray

    Text #1
    ID                          : 4
    ID in the original source m : 4611 (0x1203)
    Format                      : PGS
    Muxing mode                 : zlib
    Codec ID                    : S_HDMV/PGS
    Codec ID/Info               : Picture based subtitle format used on BDs/HD-DVDs
    Duration                    : 1 h 30 min
    Bit rate                    : 54.9 kb/s
    Count of elements           : 3288
    Stream size                 : 35.6 MiB (0%)
    Title                       : Español-PGS [CinemaniaHDD]
    Language                    : Spanish
    Default                     : No
    Forced                      : No
    Original source medium      : Blu-ray

    Text #2
    ID                          : 5
    ID in the original source m : 4608 (0x1200)
    Format                      : PGS
    Muxing mode                 : zlib
    Codec ID                    : S_HDMV/PGS
    Codec ID/Info               : Picture based subtitle format used on BDs/HD-DVDs
    Duration                    : 1 h 30 min
    Bit rate                    : 67.8 kb/s
    Count of elements           : 4032
    Stream size                 : 43.9 MiB (0%)
    Title                       : Ingles [CinemaniaHDD]
    Language                    : English
    Default                     : No
    Forced                      : No
    Original source medium      : Blu-ray

    Text #3
    ID                          : 6
    Format                      : UTF-8
    Codec ID                    : S_TEXT/UTF8
    Codec ID/Info               : UTF-8 Plain Text
    Duration                    : 1 h 11 min
    Bit rate                    : 0 b/s
    Count of elements           : 13
    Stream size                 : 367 Bytes (0%)
    Title                       : Forzados-SRT [CinemaniaHDD]
    Language                    : Spanish
    Default                     : Yes
    Forced                      : Yes

    Text #4
    ID                          : 7
    Format                      : UTF-8
    Codec ID                    : S_TEXT/UTF8
    Codec ID/Info               : UTF-8 Plain Text
    Duration                    : 1 h 30 min
    Bit rate                    : 90 b/s
    Count of elements           : 1644
    Stream size                 : 60.2 KiB (0%)
    Title                       : Español-SRT [CinemaniaHDD]
    Language                    : Spanish
    Default                     : No
    Forced                      : No

    Menu
    00:00:00.000                : Chapter 01
    00:09:23.729                : Chapter 02
    00:19:57.070                : Chapter 03
    00:28:45.014                : Chapter 04
    00:35:35.049                : Chapter 05
    00:44:05.768                : Chapter 06
    00:55:54.726                : Chapter 07
    01:03:21.047                : Chapter 08
    01:12:08.198                : Chapter 09
    01:21:58.204                : Chapter 10
    01:31:15.261                : Chapter 11

  • Peso: 22.8 GiB

Sinopsis

Descargar Guerra de Papás (2015) REMUX 1080p Latino-CMHDD. Brad Taggart, un ejecutivo que acaba de casarse, intenta por todos los medios ganarse el afecto de los hijos de Sarah, pero le resulta muy difícil porque los niños echan mucho de menos a su padre. Las cosas se pondrán peor con el regreso de Dusty, ex marido de Sarah y padre de los dos niños. Entre ellos surge una fuerte rivalidad: uno intenta integrarse en su nueva familia, el otro pretende reconquistar a su ex esposa y a sus hijos.

Ficha técnica

Video trailer de la película

Enlaces de descarga

Rip de Bluray

Descargar Guerra de Papás (2015) REMUX 1080p Latino-CMHDD


Aportes de DPeliculasHDmega la pass es:dpeliculashdmega.org Aportes de CinemaniaHD la pass es:cinemaniahdd.com Aportes recientes:cinemaniahdd.net
Guardado en : Comedia , Remux

Películas relacionadas

descargar Guerra de Papás (2015) REMUX 1080p Latino-CMHDD Full 1080p 1080p gratis, Guerra de Papás (2015) REMUX 1080p Latino-CMHDD Full 1080p mega 1 link, Guerra de Papás (2015) REMUX 1080p Latino-CMHDD Full 1080p pelicula completa, descargar Guerra de Papás (2015) REMUX 1080p Latino-CMHDD Full 1080p gratis en mega.

Guerra de Papás (2015) REMUX 1080p Latino-CMHDD pelicula full hd, Guerra de Papás (2015) REMUX 1080p Latino-CMHDD mega latino, Guerra de Papás (2015) REMUX 1080p Latino-CMHDD 4k latino, Guerra de Papás (2015) REMUX 1080p Latino-CMHDD pelicula completa, Guerra de Papás (2015) REMUX 1080p Latino-CMHDD descargar gratis, descargar Guerra de Papás (2015) REMUX 1080p Latino-CMHDD pelicula latino, Guerra de Papás (2015) REMUX 1080p Latino-CMHDD 1 link mega, Guerra de Papás (2015) REMUX 1080p Latino-CMHDD 1 link google drive, Guerra de Papás (2015) REMUX 1080p Latino-CMHDD hd 1080p latino.
Comentarios 0