×

¿Problemas para descargar con Mozilla, EDGE? Deshabilita la opción "Abrir vinculos en una pestaña nueva" tal como lo muestra ésta imagen.

D-Tox (2002) REMUX 1080p Latino – CMHDD

119 vistas

Información de D-Tox (2002) REMUX 1080p Latino – CMHDD

Datos de la película

  • Calidad: Full 1080p
  • Audio: Español Latino DTS 5.1 BLURAY - Ingles DTS 5.1 BLURAY
  • Subtitulos: Español Latino PGS
  • Resolución: 1920x1080p
  • Formato: MKV
  • Codec: H.264
  • Encoder: Dracarys
  • Mediainfo: Clic para Mostrar Datos Ver
  • Format                      : Matroska
    Format version              : Version 4
    File size                   : 23.4 GiB
    Duration                    : 1 h 35 min
    Overall bit rate mode       : Variable
    Overall bit rate            : 35.0 Mb/s
    Movie name                  : D-Tox (2002) REMUX 1080p Latino - CMHDD
    Encoded date                : UTC 2021-07-15 05:12:54
    Writing application         : mkvmerge v56.1.0 ('My Friend') 64-bit
    Writing library             : libebml v1.4.2 + libmatroska v1.6.4
    Cover                       : Yes
    Attachments                 : cover.jpg

    Video
    ID                          : 1
    ID in the original source m : 4113 (0x1011)
    Format                      : VC-1
    Format profile              : Advanced@L3
    Codec ID                    : V_MS/VFW/FOURCC / WVC1
    Codec ID/Hint               : Microsoft
    Duration                    : 1 h 35 min
    Bit rate                    : 29.8 Mb/s
    Width                       : 1 920 pixels
    Height                      : 1 080 pixels
    Display aspect ratio        : 16:9
    Frame rate mode             : Constant
    Frame rate                  : 23.976 (24000/1001) FPS
    Color space                 : YUV
    Chroma subsampling          : 4:2:0
    Bit depth                   : 8 bits
    Scan type                   : Progressive
    Compression mode            : Lossy
    Bits/(Pixel*Frame)          : 0.599
    Stream size                 : 19.9 GiB (85%)
    Default                     : Yes
    Forced                      : No
    Original source medium      : Blu-ray

    Audio #1
    ID                          : 2
    ID in the original source m : 4353 (0x1101)
    Format                      : DTS XLL
    Format/Info                 : Digital Theater Systems
    Commercial name             : DTS-HD Master Audio
    Codec ID                    : A_DTS
    Duration                    : 1 h 35 min
    Bit rate mode               : Variable
    Bit rate                    : 4 473 kb/s
    Channel(s)                  : 6 channels
    Channel layout              : C L R Ls Rs LFE
    Sampling rate               : 48.0 kHz
    Frame rate                  : 93.750 FPS (512 SPF)
    Bit depth                   : 24 bits
    Compression mode            : Lossless
    Stream size                 : 2.99 GiB (13%)
    Language                    : English
    Default                     : No
    Forced                      : No
    Original source medium      : Blu-ray

    Audio #2
    ID                          : 3
    ID in the original source m : 4359 (0x1107)
    Format                      : DTS
    Format/Info                 : Digital Theater Systems
    Codec ID                    : A_DTS
    Duration                    : 1 h 35 min
    Bit rate mode               : Constant
    Bit rate                    : 768 kb/s
    Channel(s)                  : 6 channels
    Channel layout              : C L R Ls Rs LFE
    Sampling rate               : 48.0 kHz
    Frame rate                  : 93.750 FPS (512 SPF)
    Bit depth                   : 24 bits
    Compression mode            : Lossy
    Stream size                 : 526 MiB (2%)
    Language                    : Spanish
    Default                     : Yes
    Forced                      : No
    Original source medium      : Blu-ray

    Text
    ID                          : 4
    ID in the original source m : 4615 (0x1207)
    Format                      : PGS
    Muxing mode                 : zlib
    Codec ID                    : S_HDMV/PGS
    Codec ID/Info               : Picture based subtitle format used on BDs/HD-DVDs
    Duration                    : 1 h 30 min
    Bit rate                    : 26.6 kb/s
    Count of elements           : 1642
    Stream size                 : 17.1 MiB (0%)
    Language                    : Spanish
    Default                     : No
    Forced                      : No
    Original source medium      : Blu-ray

    Menu
    00:00:00.000                : Chapter 01
    00:03:18.823                : Chapter 02
    00:09:02.833                : Chapter 03
    00:16:05.547                : Chapter 04
    00:20:18.675                : Chapter 05
    00:24:21.418                : Chapter 06
    00:31:14.330                : Chapter 07
    00:35:17.907                : Chapter 08
    00:40:20.751                : Chapter 09
    00:45:36.650                : Chapter 10
    00:52:41.074                : Chapter 11
    00:58:17.452                : Chapter 12
    01:04:26.320                : Chapter 13
    01:09:36.422                : Chapter 14
    01:16:10.941                : Chapter 15
    01:22:41.081                : Chapter 16
    01:25:57.986                : Chapter 17
    01:31:41.454                : Chapter 18

  • Peso: 23.4 GiB

Sinopsis

Jack Malloy es un agente del FBI que se ha refugiado en la bebida para olvidar las heridas del pasado: unos años antes un psicópata asesinó a su esposa y a varios de sus compañeros. Para recuperarse decide ingresar en una clínica de rehabilitación para policías, pero el centro terapeútico se convierte en una una verdadera pesadilla cuando, al quedar aislado por la nieve, empiezan a aparecer pacientes muertos en circunstancias sospechosas

Ficha técnica

Video trailer de la película

Enlaces de descarga

Rip de Bluray

Descargar D-Tox (2002) REMUX 1080p Latino – CMHDD


Aportes de DPeliculasHDmega la pass es:dpeliculashdmega.org Aportes de CinemaniaHD la pass es:cinemaniahdd.com
Guardado en : Acción , Suspenso , Terror

Películas relacionadas

D-Tox (2002) REMUX 1080p Latino – CMHDD pelicula full hd, D-Tox (2002) REMUX 1080p Latino – CMHDD mega latino, D-Tox (2002) REMUX 1080p Latino – CMHDD 4k latino, D-Tox (2002) REMUX 1080p Latino – CMHDD pelicula completa, D-Tox (2002) REMUX 1080p Latino – CMHDD descargar gratis, descargar D-Tox (2002) REMUX 1080p Latino – CMHDD pelicula latino, D-Tox (2002) REMUX 1080p Latino – CMHDD 1 link mega, D-Tox (2002) REMUX 1080p Latino – CMHDD 1 link google drive, D-Tox (2002) REMUX 1080p Latino – CMHDD hd 1080p latino.