×

¿Problemas para descargar con Mozilla, EDGE? Deshabilita la opción "Abrir vinculos en una pestaña nueva" tal como lo muestra ésta imagen.

CZ12: Operación Zodiaco (2012) THEATRICAL CUT REMUX 1080p Latino

388 vistas

Información de CZ12: Operación Zodiaco (2012) THEATRICAL CUT REMUX 1080p Latino

Datos de la película

  • Calidad: Full 1080p
  • Audio: Se especifica abajo de la Sinopsis
  • Subtitulos: Español Latino SRT- FORZADOS SRT
  • Resolución: 1920x1080p
  • Formato: MKV
  • Codec: H.264
  • Encoder: CinefiloCool
  • Mediainfo: Clic para Mostrar Datos Ver
  • CZ12 El Zodiaco Chino (2012) REMUX 1080p Latino-CMHDD.mkv Format                      : Matroska Format version              : Version 4 File size                   : 20.0 GiB Duration                    : 1 h 49 min Overall bit rate mode       : Variable Overall bit rate            : 26.2 Mb/s Movie name                  : CZ12: Chinese Zodiac (2012) CinemaniaHDD.Net Encoded date                : UTC 2023-01-29 09:33:32 Writing application         : mkvmerge v56.1.0 ('My Friend') 64-bit Writing library             : libebml v1.4.2 + libmatroska v1.6.4 Attachments                 : CINEMANIAHD.png Video ID                          : 1 ID in the original source m : 4113 (0x1011) Format                      : AVC Format/Info                 : Advanced Video Codec Format profile              : High@L4.1 Format settings             : CABAC / 4 Ref Frames Format settings, CABAC      : Yes Format settings, Reference  : 4 frames Codec ID                    : V_MPEG4/ISO/AVC Duration                    : 1 h 49 min Bit rate mode               : Variable Bit rate                    : 23.6 Mb/s Maximum bit rate            : 30.0 Mb/s Width                       : 1 920 pixels Height                      : 1 080 pixels Display aspect ratio        : 16:9 Frame rate mode             : Constant Frame rate                  : 23.976 (24000/1001) FPS Standard                    : NTSC Color space                 : YUV Chroma subsampling          : 4:2:0 Bit depth                   : 8 bits Scan type                   : Progressive Bits/(Pixel*Frame)          : 0.474 Stream size                 : 18.0 GiB (90%) Title                       : REMUX HD1080p [CinemaniaHDD] Default                     : Yes Forced                      : Yes Color range                 : Limited Color primaries             : BT.709 Transfer characteristics    : BT.709 Matrix coefficients         : BT.709 Original source medium      : Blu-ray Audio #1 ID                          : 2 Format                      : AC-3 Format/Info                 : Audio Coding 3 Commercial name             : Dolby Digital Codec ID                    : A_AC3 Duration                    : 1 h 49 min Bit rate mode               : Constant Bit rate                    : 256 kb/s Channel(s)                  : 2 channels Channel layout              : L R Sampling rate               : 48.0 kHz Frame rate                  : 31.250 FPS (1536 SPF) Compression mode            : Lossy Stream size                 : 200 MiB (1%) Title                       : Español Latino [CinemaniaHDD] Service kind                : Complete Main Default                     : Yes Forced                      : Yes Audio #2 ID                          : 3 ID in the original source m : 4353 (0x1101) Format                      : DTS XLL Format/Info                 : Digital Theater Systems Commercial name             : DTS-HD Master Audio Codec ID                    : A_DTS Duration                    : 1 h 49 min Bit rate mode               : Variable Bit rate                    : 2 392 kb/s Channel(s)                  : 6 channels Channel layout              : C L R Ls Rs LFE Sampling rate               : 48.0 kHz Frame rate                  : 93.750 FPS (512 SPF) Bit depth                   : 16 bits Compression mode            : Lossless Stream size                 : 1.83 GiB (9%) Title                       : Ing-Chi [CinemaniaHDD] Language                    : English Default                     : No Forced                      : No Original source medium      : Blu-ray Text #1 ID                          : 4 Format                      : UTF-8 Codec ID                    : S_TEXT/UTF8 Codec ID/Info               : UTF-8 Plain Text Duration                    : 1 h 47 min Bit rate                    : 1 b/s Count of elements           : 22 Stream size                 : 912 Bytes (0%) Title                       : Forzados-SRT [CinemaniaHDD] Language                    : Spanish Default                     : Yes Forced                      : Yes Text #2 ID                          : 5 Format                      : UTF-8 Codec ID                    : S_TEXT/UTF8 Codec ID/Info               : UTF-8 Plain Text Duration                    : 1 h 48 min Bit rate                    : 55 b/s Count of elements           : 1449 Stream size                 : 44.1 KiB (0%) Title                       : Español-SRT [CinemaniaHDD] Language                    : Spanish Default                     : No Forced                      : No Menu 00:00:00.000                : Chapter 01 00:06:33.726                : Chapter 02 00:14:43.215                : Chapter 03 00:27:50.377                : Chapter 04 00:39:43.756                : Chapter 05 00:50:07.045                : Chapter 06 01:00:17.238                : Chapter 07 01:10:02.489                : Chapter 08 01:18:48.890                : Chapter 09 01:26:38.109                : Chapter 10 01:33:57.923                : Chapter 11 01:40:24.643                : Chapter 12
  • Peso: 20.0 GiB

Sinopsis

Descargar CZ12: Operación Zodiaco (2012) THEATRICAL CUT REMUX 1080p Latino. Asian Hawk (Jackie Chan) lidera un equipo de mercenarios para recuperar varios objetos perdidos del Antiguo Palacio de Verano, las cabezas de bronce de los 12 animales del zodiaco chino que fueron saqueadas por los ejércitos franceses y británicos del palacio imperial de verano en Beijing en 1860. Ayudado por un estudiante chino y una dama parisina, Hawk se detiene ante nada para lograr la misión.

Audio Español Latino AC3 2.0 Web – Hybrid Ingles-Chino DTS-HD 5.1 Bluray

Ficha técnica

Video trailer de la película

Enlaces de descarga

Rip de Bluray

Descargar CZ12: Operación Zodiaco (2012) THEATRICAL CUT REMUX 1080p Latino


Aportes de DPeliculasHDmega la pass es:dpeliculashdmega.org Aportes de CinemaniaHD la pass es:cinemaniahdd.com Aportes recientes:cinemaniahdd.net
Guardado en : Acción , Aventura , Remux

Películas relacionadas

descargar CZ12: Operación Zodiaco (2012) THEATRICAL CUT REMUX 1080p Latino Full 1080p 1080p gratis, CZ12: Operación Zodiaco (2012) THEATRICAL CUT REMUX 1080p Latino Full 1080p mega 1 link, CZ12: Operación Zodiaco (2012) THEATRICAL CUT REMUX 1080p Latino Full 1080p pelicula completa, descargar CZ12: Operación Zodiaco (2012) THEATRICAL CUT REMUX 1080p Latino Full 1080p gratis en mega.

CZ12: Operación Zodiaco (2012) THEATRICAL CUT REMUX 1080p Latino pelicula full hd, CZ12: Operación Zodiaco (2012) THEATRICAL CUT REMUX 1080p Latino mega latino, CZ12: Operación Zodiaco (2012) THEATRICAL CUT REMUX 1080p Latino 4k latino, CZ12: Operación Zodiaco (2012) THEATRICAL CUT REMUX 1080p Latino pelicula completa, CZ12: Operación Zodiaco (2012) THEATRICAL CUT REMUX 1080p Latino descargar gratis, descargar CZ12: Operación Zodiaco (2012) THEATRICAL CUT REMUX 1080p Latino pelicula latino, CZ12: Operación Zodiaco (2012) THEATRICAL CUT REMUX 1080p Latino 1 link mega, CZ12: Operación Zodiaco (2012) THEATRICAL CUT REMUX 1080p Latino 1 link google drive, CZ12: Operación Zodiaco (2012) THEATRICAL CUT REMUX 1080p Latino hd 1080p latino.
Comentarios 0