×

¿Problemas para descargar con Mozilla, EDGE? Deshabilita la opción "Abrir vinculos en una pestaña nueva" tal como lo muestra ésta imagen.

La Maldición de Chucky (2013) UNRATED Full HD 1080p Latino

2.318 vistas

Información de La Maldición de Chucky (2013) UNRATED Full HD 1080p Latino

Datos de la película

  • Calidad: Full 1080p
  • Audio: Español Latino DTS 5.1 BLURAY - Ingles DTS 5.1 BLURAY
  • Subtitulos: Español Latino PGS - Ingles PGS
  • Resolución: 1920x1080p
  • Formato: MKV
  • Codec: H.264
  • Encoder: dpelis1
  • Mediainfo: Clic para Mostrar Datos Ver
  • La Maldicion De Chucky (2013) Full HD 1080p Latino-CMHDD.mkv
    Format                      : Matroska
    Format version              : Version 4
    File size                   : 3.64 GiB
    Duration                    : 1 h 36 min
    Overall bit rate            : 5 394 kb/s
    Movie name                  : Curse of Chucky (2013) CinemaniaHDD.Net
    Encoded date                : UTC 2022-07-22 05:22:30
    Writing application         : mkvmerge v56.1.0 ('My Friend') 64-bit
    Writing library             : libebml v1.4.2 + libmatroska v1.6.4
    Attachments                 : CINEMANIAHD.png

    Video
    ID                          : 1
    Format                      : AVC
    Format/Info                 : Advanced Video Codec
    Format profile              : High@L4.1
    Format settings             : CABAC / 4 Ref Frames
    Format settings, CABAC      : Yes
    Format settings, Reference  : 4 frames
    Codec ID                    : V_MPEG4/ISO/AVC
    Duration                    : 1 h 36 min
    Bit rate                    : 3 094 kb/s
    Width                       : 1 920 pixels
    Height                      : 1 080 pixels
    Display aspect ratio        : 16:9
    Frame rate mode             : Constant
    Frame rate                  : 23.976 (23976/1000) FPS
    Color space                 : YUV
    Chroma subsampling          : 4:2:0
    Bit depth                   : 8 bits
    Scan type                   : Progressive
    Bits/(Pixel*Frame)          : 0.062
    Stream size                 : 2.09 GiB (57%)
    Title                       : Full HD1080p [CinemaniaHDD]
    Writing library             : x264 core 148 r2708 86b7198
    Encoding settings           : cabac=1 / ref=4 / deblock=1:0:0 / analyse=0x3:0x133 / me=esa / subme=10 / psy=1 / psy_rd=1.00:0.00 / mixed_ref=1 / me_range=24 / chroma_me=1 / trellis=2 / 8x8dct=1 / cqm=0 / deadzone=21,11 / fast_pskip=1 / chroma_qp_offset=-2 / threads=12 / lookahead_threads=2 / sliced_threads=0 / nr=0 / decimate=1 / interlaced=0 / bluray_compat=0 / constrained_intra=0 / bframes=8 / b_pyramid=2 / b_adapt=2 / b_bias=0 / direct=3 / weightb=1 / open_gop=0 / weightp=2 / keyint=240 / keyint_min=24 / scenecut=40 / intra_refresh=0 / rc_lookahead=60 / rc=crf / mbtree=1 / crf=20.0 / qcomp=0.60 / qpmin=0 / qpmax=69 / qpstep=4 / vbv_maxrate=62500 / vbv_bufsize=78125 / crf_max=0.0 / nal_hrd=none / filler=0 / ip_ratio=1.40 / aq=1:1.00
    Default                     : Yes
    Forced                      : Yes
    Color range                 : Limited
    Color primaries             : BT.709
    Transfer characteristics    : BT.709
    Matrix coefficients         : BT.709

    Audio #1
    ID                          : 2
    Format                      : DTS
    Format/Info                 : Digital Theater Systems
    Codec ID                    : A_DTS
    Duration                    : 1 h 36 min
    Bit rate mode               : Constant
    Bit rate                    : 768 kb/s
    Channel(s)                  : 6 channels
    Channel layout              : C L R Ls Rs LFE
    Sampling rate               : 48.0 kHz
    Frame rate                  : 93.750 FPS (512 SPF)
    Bit depth                   : 24 bits
    Compression mode            : Lossy
    Delay relative to video     : 970 ms
    Stream size                 : 531 MiB (14%)
    Title                       : Español Latino [CinemaniaHDD]
    Language                    : Spanish
    Default                     : Yes
    Forced                      : Yes

    Audio #2
    ID                          : 3
    Format                      : DTS
    Format/Info                 : Digital Theater Systems
    Codec ID                    : A_DTS
    Duration                    : 1 h 36 min
    Bit rate mode               : Constant
    Bit rate                    : 1 509 kb/s
    Channel(s)                  : 6 channels
    Channel layout              : C L R Ls Rs LFE
    Sampling rate               : 48.0 kHz
    Frame rate                  : 93.750 FPS (512 SPF)
    Bit depth                   : 24 bits
    Compression mode            : Lossy
    Delay relative to video     : 970 ms
    Stream size                 : 1.02 GiB (28%)
    Title                       : Ingles [CinemaniaHDD]
    Language                    : English
    Default                     : No
    Forced                      : No

    Text #1
    ID                          : 4
    Format                      : PGS
    Muxing mode                 : zlib
    Codec ID                    : S_HDMV/PGS
    Codec ID/Info               : Picture based subtitle format used on BDs/HD-DVDs
    Duration                    : 1 h 35 min
    Bit rate                    : 18.8 kb/s
    Count of elements           : 1391
    Stream size                 : 12.9 MiB (0%)
    Title                       : Español-PGS [CinemaniaHDD]
    Language                    : Spanish
    Default                     : No
    Forced                      : No

    Text #2
    ID                          : 5
    Format                      : PGS
    Muxing mode                 : zlib
    Codec ID                    : S_HDMV/PGS
    Codec ID/Info               : Picture based subtitle format used on BDs/HD-DVDs
    Duration                    : 1 h 35 min
    Bit rate                    : 20.8 kb/s
    Count of elements           : 1476
    Stream size                 : 14.2 MiB (0%)
    Title                       : Ingles-PGS [CinemaniaHDD]
    Language                    : English
    Default                     : No
    Forced                      : No

    Text #3
    ID                          : 6
    Format                      : UTF-8
    Codec ID                    : S_TEXT/UTF8
    Codec ID/Info               : UTF-8 Plain Text
    Duration                    : 1 h 26 min
    Bit rate                    : 0 b/s
    Count of elements           : 7
    Stream size                 : 193 Bytes (0%)
    Title                       : Forzados-SRT [CinemaniaHDD]
    Language                    : Spanish
    Default                     : Yes
    Forced                      : Yes

    Text #4
    ID                          : 7
    Format                      : UTF-8
    Codec ID                    : S_TEXT/UTF8
    Codec ID/Info               : UTF-8 Plain Text
    Duration                    : 1 h 35 min
    Bit rate                    : 30 b/s
    Count of elements           : 710
    Stream size                 : 21.0 KiB (0%)
    Title                       : Español-SRT [CinemaniaHDD]
    Language                    : Spanish
    Default                     : No
    Forced                      : No

    Menu
    00:00:00.970                : Chapter 01
    00:04:46.380                : Chapter 02
    00:08:49.456                : Chapter 03
    00:15:31.649                : Chapter 04
    00:20:25.276                : Chapter 05
    00:27:35.623                : Chapter 06
    00:32:43.472                : Chapter 07
    00:37:48.109                : Chapter 08
    00:43:52.640                : Chapter 09
    00:46:55.156                : Chapter 10
    00:51:30.306                : Chapter 11
    00:56:47.873                : Chapter 12
    01:01:30.656                : Chapter 13
    01:05:35.317                : Chapter 14
    01:09:10.240                : Chapter 15
    01:13:42.220                : Chapter 16
    01:20:24.205                : Chapter 17
    01:24:54.475                : Chapter 18
    01:28:32.734                : Chapter 19
    01:31:48.430                : Chapter 20

  • Peso: 3.64 GiB

Sinopsis

Descargar La Maldición de Chucky (2013) UNRATED Full HD 1080p Latino. Nica (Fiona Dourif) se rompe después del suicidio del devastador a su propia madre. Su hermana mayor Barb (Danielle Bisutti) regresa a casa para ayudar en este duro trance, y trajo con su niña, que tiene una muñeca parlante llamado Chucky misterioso sucedió en el correo. Como una serie de brutales asesinatos comienza a aterrorizar a la familia, Nica sospecha que Chucky puede ser la clave para el derramamiento de sangre, pero sabe que es él está decidido a terminar un trabajo que comenzó allí 20 años, esta vez, se va a proceder a la final ..

RESUBIDO!!!

Ficha técnica

Video trailer de la película

Enlaces de descarga

Rip de Bluray

Descargar La Maldición de Chucky (2013) UNRATED Full HD 1080p Latino




Aportes de DPeliculasHDmega la pass es:dpeliculashdmega.org Aportes de CinemaniaHD la pass es:cinemaniahdd.com

Películas relacionadas

  • Emily la criminal (2022) HD 1080p Latino

    Emily la criminal (2022) HD 1080p Latino

    2022
    Emily la criminal (2022) HD 1080p Latino

    1h 37m 2022

    Descargar Emily la criminal (2022) HD 1080p Latino. Emily, que tiene una deuda estudiantil y está excluida...

    Director: John Patton Ford

    Género: Crimen

    Actores: Theo Rossi

  • Emily la criminal (2022) REMUX 1080p Latino

    Emily la criminal (2022) REMUX 1080p Latino

    2022
    Emily la criminal (2022) REMUX 1080p Latino

    1h 37m 2022

    Descargar Emily la criminal (2022) REMUX 1080p Latino. Emily, que tiene una deuda estudiantil y está...

    Director: John Patton Ford

    Género: Crimen

    Actores: Theo Rossi

  • Herencia peligrosa (2022) HD 1080p Latino

    Herencia peligrosa (2022) HD 1080p Latino

    2022
    Herencia peligrosa (2022) HD 1080p Latino

    1h 34m 2022

    Descargar Herencia peligrosa (2022) HD 1080p Latino. Tres ladrones se hacen con el yate de lujo de una...

    Director: Declan Whitebloom

    Género: Acción

    Actores: Vernon Davis

descargar La Maldición de Chucky (2013) UNRATED Full HD 1080p Latino Full 1080p 1080p gratis, La Maldición de Chucky (2013) UNRATED Full HD 1080p Latino Full 1080p mega 1 link, La Maldición de Chucky (2013) UNRATED Full HD 1080p Latino Full 1080p pelicula completa, descargar La Maldición de Chucky (2013) UNRATED Full HD 1080p Latino Full 1080p gratis en mega.

La Maldición de Chucky (2013) UNRATED Full HD 1080p Latino pelicula full hd, La Maldición de Chucky (2013) UNRATED Full HD 1080p Latino mega latino, La Maldición de Chucky (2013) UNRATED Full HD 1080p Latino 4k latino, La Maldición de Chucky (2013) UNRATED Full HD 1080p Latino pelicula completa, La Maldición de Chucky (2013) UNRATED Full HD 1080p Latino descargar gratis, descargar La Maldición de Chucky (2013) UNRATED Full HD 1080p Latino pelicula latino, La Maldición de Chucky (2013) UNRATED Full HD 1080p Latino 1 link mega, La Maldición de Chucky (2013) UNRATED Full HD 1080p Latino 1 link google drive, La Maldición de Chucky (2013) UNRATED Full HD 1080p Latino hd 1080p latino.
Comentarios 3
  • Aldair Jesus - 03 julio, 2017

    Esperaba que fuera la UNRATED :/

  • maria - 01 mayo, 2017

    gracias por la pelicula disculpa de casualidad subida la version UNRATED

    • dpelis - 02 mayo, 2017

      ya lo veremos estimado. saludos