×

¿Problemas para descargar con Mozilla, EDGE? Deshabilita la opción "Abrir vinculos en una pestaña nueva" tal como lo muestra ésta imagen.

Curon (2020) Primera Temporada WEB-DL 1080p Latino – CMHDD

336 vistas

Información de Curon (2020) Primera Temporada WEB-DL 1080p Latino – CMHDD

Datos de la película

  • Calidad: WEBDL
  • Audio: Español Latino E-AC3 5.1 Netflix - Ingles E-AC3 5.1 Netflix
  • Subtitulos: Español Latino SRT- FORZADOS SRT
  • Resolución: 1920x1080p
  • Formato: MKV
  • Codec: H.264
  • Encoder: Dracarys
  • Mediainfo: Clic para Mostrar Datos Ver
  • Format                      : Matroska
    Format version              : Version 4
    File size                   : 2.08 GiB
    Duration                    : 45 min 36 s
    Overall bit rate mode       : Variable
    Overall bit rate            : 6 519 kb/s
    Movie name                  : Curon (2020) [S01E02] WEB-DL 1080p Latino - CMHDD
    Encoded date                : UTC 2020-06-11 02:58:40
    Writing application         : mkvmerge v46.0.0 ('No Deeper Escape') 64-bit
    Writing library             : libebml v1.3.10 + libmatroska v1.5.2

    Video
    ID                          : 1
    Format                      : AVC
    Format/Info                 : Advanced Video Codec
    Format profile              : Main@L4
    Format settings             : CABAC / 3 Ref Frames
    Format settings, CABAC      : Yes
    Format settings, Reference  : 3 frames
    Codec ID                    : V_MPEG4/ISO/AVC
    Duration                    : 45 min 36 s
    Bit rate mode               : Variable
    Bit rate                    : 5 237 kb/s
    Nominal bit rate            : 5 620 kb/s
    Maximum bit rate            : 8 430 kb/s
    Width                       : 1 920 pixels
    Height                      : 1 080 pixels
    Display aspect ratio        : 16:9
    Frame rate mode             : Constant
    Frame rate                  : 24.000 FPS
    Color space                 : YUV
    Chroma subsampling          : 4:2:0
    Bit depth                   : 8 bits
    Scan type                   : Progressive
    Bits/(Pixel*Frame)          : 0.105
    Stream size                 : 1.67 GiB (80%)
    Writing library             : x264 core 148 r2717 0d2410d
    Encoding settings           : cabac=1 / ref=3 / deblock=1:0:0 / analyse=0x1:0x111 / me=umh / subme=10 / psy=1 / psy_rd=1.00:0.00 / mixed_ref=1 / me_range=24 / chroma_me=1 / trellis=2 / 8x8dct=0 / cqm=0 / deadzone=21,11 / fast_pskip=1 / chroma_qp_offset=-2 / threads=8 / lookahead_threads=1 / sliced_threads=0 / nr=0 / decimate=1 / interlaced=0 / bluray_compat=0 / stitchable=1 / constrained_intra=0 / bframes=2 / b_pyramid=0 / b_adapt=2 / b_bias=0 / direct=3 / weightb=1 / open_gop=0 / weightp=2 / keyint=250 / keyint_min=24 / scenecut=0 / intra_refresh=0 / rc_lookahead=48 / rc=2pass / mbtree=1 / bitrate=5620 / ratetol=1.0 / qcomp=0.50 / qpmin=6 / qpmax=51 / qpstep=4 / cplxblur=20.0 / qblur=0.5 / vbv_maxrate=8430 / vbv_bufsize=11240 / nal_hrd=vbr / filler=0 / ip_ratio=1.40 / aq=1:1.00
    Default                     : Yes
    Forced                      : No

    Audio #1
    ID                          : 2
    Format                      : E-AC-3
    Format/Info                 : Enhanced AC-3
    Commercial name             : Dolby Digital Plus
    Codec ID                    : A_EAC3
    Duration                    : 45 min 36 s
    Bit rate mode               : Constant
    Bit rate                    : 640 kb/s
    Channel(s)                  : 6 channels
    Channel layout              : L R C LFE Ls Rs
    Sampling rate               : 48.0 kHz
    Frame rate                  : 31.250 FPS (1536 SPF)
    Compression mode            : Lossy
    Stream size                 : 209 MiB (10%)
    Language                    : Spanish
    Service kind                : Complete Main
    Default                     : Yes
    Forced                      : Yes

    Audio #2
    ID                          : 3
    Format                      : E-AC-3
    Format/Info                 : Enhanced AC-3
    Commercial name             : Dolby Digital Plus
    Codec ID                    : A_EAC3
    Duration                    : 45 min 36 s
    Bit rate mode               : Constant
    Bit rate                    : 640 kb/s
    Channel(s)                  : 6 channels
    Channel layout              : L R C LFE Ls Rs
    Sampling rate               : 48.0 kHz
    Frame rate                  : 31.250 FPS (1536 SPF)
    Compression mode            : Lossy
    Stream size                 : 209 MiB (10%)
    Language                    : Italian
    Service kind                : Complete Main
    Default                     : No
    Forced                      : No

    Text #1
    ID                          : 4
    Format                      : UTF-8
    Codec ID                    : S_TEXT/UTF8
    Codec ID/Info               : UTF-8 Plain Text
    Duration                    : 44 min 28 s
    Bit rate                    : 1 b/s
    Count of elements           : 30
    Stream size                 : 666 Bytes (0%)
    Title                       : Forzados
    Language                    : Spanish
    Default                     : Yes
    Forced                      : Yes

    Text #2
    ID                          : 5
    Format                      : UTF-8
    Codec ID                    : S_TEXT/UTF8
    Codec ID/Info               : UTF-8 Plain Text
    Duration                    : 44 min 28 s
    Bit rate                    : 37 b/s
    Count of elements           : 429
    Stream size                 : 12.3 KiB (0%)
    Title                       : Completos
    Language                    : Spanish
    Default                     : No
    Forced                      : No

  • Peso: 2.00 GiB X Capitulo

Sinopsis

Serie de TV (2020-). Cuando la madre de dos gemelos adolescentes desaparece tras llegar a su pueblo natal, estos descubrirán los secretos que oculta ese lugar aparentemente tranquilo.

Ficha técnica

Video trailer de la película

Enlaces de descarga

Rip de Bluray

Descargar Curon (2020) Primera Temporada WEB-DL 1080p Latino – CMHDD




Aportes de DPeliculasHDmega la pass es:dpeliculashdmega.org Aportes de CinemaniaHD la pass es:cinemaniahdd.com
Guardado en : Drama , Misterio , Sci-Fi & Fantasy , Series

Películas relacionadas

descargar Curon (2020) Primera Temporada WEB-DL 1080p Latino – CMHDD WEBDL 1080p gratis, Curon (2020) Primera Temporada WEB-DL 1080p Latino – CMHDD WEBDL mega 1 link, Curon (2020) Primera Temporada WEB-DL 1080p Latino – CMHDD WEBDL serie completa, descargar Curon (2020) Primera Temporada WEB-DL 1080p Latino – CMHDD WEBDL gratis en mega.

Curon (2020) Primera Temporada WEB-DL 1080p Latino – CMHDD pelicula full hd, Curon (2020) Primera Temporada WEB-DL 1080p Latino – CMHDD mega latino, Curon (2020) Primera Temporada WEB-DL 1080p Latino – CMHDD 4k latino, Curon (2020) Primera Temporada WEB-DL 1080p Latino – CMHDD pelicula completa, Curon (2020) Primera Temporada WEB-DL 1080p Latino – CMHDD descargar gratis, descargar Curon (2020) Primera Temporada WEB-DL 1080p Latino – CMHDD pelicula latino, Curon (2020) Primera Temporada WEB-DL 1080p Latino – CMHDD 1 link mega, Curon (2020) Primera Temporada WEB-DL 1080p Latino – CMHDD 1 link google drive, Curon (2020) Primera Temporada WEB-DL 1080p Latino – CMHDD hd 1080p latino.
Comentarios 0