×

¿Problemas para descargar con Mozilla, EDGE? Deshabilita la opción "Abrir vinculos en una pestaña nueva" tal como lo muestra ésta imagen.

Curious George: Royal Monkey (2019) WEB-DL 1080p Latino

558 vistas

Información de Curious George: Royal Monkey (2019) WEB-DL 1080p Latino

curious george royal monkey 56767 poster

Datos de la película

  • Calidad: WEBDL
  • Audio: Español Latino AC3 5.1 Netflix - Ingles AC3 5.1 iTunes
  • Subtitulos: Español Latino SRT- FORZADOS SRT
  • Resolución: 1920x1080
  • Formato: MKV
  • Codec: H.264
  • Encoder: cinemaniahdd
  • Mediainfo: Clic para Mostrar Datos Ver
  • Curious George Royal Monkey (2019) WEB-DL 1080p Latino.mkv
    Format                      : Matroska
    Format version              : Version 4
    File size                   : 3.56 GiB
    Duration                    : 1 h 26 min
    Overall bit rate            : 5 892 kb/s
    Movie name                  : Curious George Royal Monkey (2019) WEB-DL 1080p Latino
    Encoded date                : UTC 2019-09-10 17:32:26
    Writing application         : mkvmerge v35.0.0 ('All The Love In The World') 64-bit
    Writing library             : libebml v1.3.9 + libmatroska v1.5.2

    Video
    ID                          : 1
    Format                      : AVC
    Format/Info                 : Advanced Video Codec
    Format profile              : High@L4
    Format settings             : CABAC / 4 Ref Frames
    Format settings, CABAC      : Yes
    Format settings, ReFrames   : 4 frames
    Codec ID                    : V_MPEG4/ISO/AVC
    Duration                    : 1 h 26 min
    Bit rate                    : 5 121 kb/s
    Width                       : 1 916 pixels
    Height                      : 1 076 pixels
    Display aspect ratio        : 16:9
    Frame rate mode             : Constant
    Frame rate                  : 23.976 FPS
    Color space                 : YUV
    Chroma subsampling          : 4:2:0
    Bit depth                   : 8 bits
    Scan type                   : Progressive
    Bits/(Pixel*Frame)          : 0.104
    Stream size                 : 3.10 GiB (87%)
    Title                       : CinemaniaHDD
    Language                    : English
    Default                     : Yes
    Forced                      : No
    Color range                 : Limited
    Color primaries             : BT.709
    Transfer characteristics    : BT.709
    Matrix coefficients         : BT.709

    Audio #1
    ID                          : 2
    Format                      : AC-3
    Format/Info                 : Audio Coding 3
    Commercial name             : Dolby Digital
    Codec ID                    : A_AC3
    Duration                    : 1 h 26 min
    Bit rate mode               : Constant
    Bit rate                    : 384 kb/s
    Channel(s)                  : 6 channels
    Channel layout              : L R C LFE Ls Rs
    Sampling rate               : 48.0 kHz
    Frame rate                  : 31.250 FPS (1536 SPF)
    Bit depth                   : 16 bits
    Compression mode            : Lossy
    Delay relative to video     : -42 ms
    Stream size                 : 238 MiB (7%)
    Title                       : Español latino [CinemaniaHDD]
    Language                    : Spanish
    Service kind                : Complete Main
    Default                     : Yes
    Forced                      : No

    Audio #2
    ID                          : 3
    Format                      : AC-3
    Format/Info                 : Audio Coding 3
    Commercial name             : Dolby Digital
    Codec ID                    : A_AC3
    Duration                    : 1 h 26 min
    Bit rate mode               : Constant
    Bit rate                    : 384 kb/s
    Channel(s)                  : 6 channels
    Channel layout              : L R C LFE Ls Rs
    Sampling rate               : 48.0 kHz
    Frame rate                  : 31.250 FPS (1536 SPF)
    Bit depth                   : 16 bits
    Compression mode            : Lossy
    Delay relative to video     : -42 ms
    Stream size                 : 238 MiB (7%)
    Title                       : Inglés [CinemaniaHDD]
    Language                    : English
    Service kind                : Complete Main
    Default                     : No
    Forced                      : No

    Text #1
    ID                          : 4
    Format                      : UTF-8
    Codec ID                    : S_TEXT/UTF8
    Codec ID/Info               : UTF-8 Plain Text
    Duration                    : 1 h 18 min
    Bit rate                    : 34 b/s
    Count of elements           : 644
    Stream size                 : 19.9 KiB (0%)
    Title                       : Español latino [CinemaniaHDD]
    Language                    : Spanish
    Default                     : No
    Forced                      : No

    Text #2
    ID                          : 5
    Format                      : UTF-8
    Codec ID                    : S_TEXT/UTF8
    Codec ID/Info               : UTF-8 Plain Text
    Duration                    : 1 h 24 min
    Bit rate                    : 72 b/s
    Count of elements           : 1200
    Stream size                 : 45.4 KiB (0%)
    Title                       : Inglés [CinemaniaHDD]
    Language                    : English
    Default                     : No
    Forced                      : No

    Menu
    00:00:00.000                : en:1
    00:04:20.593                : en:2
    00:07:01.086                : en:3
    00:10:32.422                : en:4
    00:15:44.275                : en:5
    00:20:16.755                : en:6
    00:24:17.704                : en:7
    00:29:07.993                : en:8
    00:34:33.442                : en:9
    00:40:08.275                : en:10
    00:44:23.070                : en:11
    00:50:31.897                : en:12
    00:52:52.203                : en:13
    00:57:10.835                : en:14
    01:01:31.637                : en:15
    01:06:43.615                : en:16
    01:09:31.532                : en:17
    01:14:32.082                : en:18
    01:18:37.701                : en:19
    01:22:35.730                : en:20

  • Peso: 3.56 GiB

Sinopsis

Únete a tu mono favorito mientras asume su papel más real hasta la fecha en la nueva película, Curious George: Royal Monkey. Después de interrumpir una reunión con una familia real cargada, George accidentalmente intercambia lugares con el mono presumido del rey, Philippe. Mientras Philippe desconcierta a Ted con sus modales impecables, George viaja al castillo donde sus payasadas divertidas levantan las cejas y sacan a la tímida princesa Isabel de su caparazón. Con música completamente nueva de Andy Grammer, esta aventura gigante nos recuerda a todos que hacer lo que amas es la clave de la felicidad.

Ficha técnica

Video trailer de la película

Enlaces de descarga

Rip de Bluray

Descargar Curious George: Royal Monkey (2019) WEB-DL 1080p Latino




Aportes de DPeliculasHDmega la pass es:dpeliculashdmega.org Aportes de CinemaniaHD la pass es:cinemaniahdd.com
Guardado en : Animación , Aventura , Comedia

Películas relacionadas

descargar Curious George: Royal Monkey (2019) WEB-DL 1080p Latino WEBDL 1080p gratis, Curious George: Royal Monkey (2019) WEB-DL 1080p Latino WEBDL mega 1 link, Curious George: Royal Monkey (2019) WEB-DL 1080p Latino WEBDL pelicula completa, descargar Curious George: Royal Monkey (2019) WEB-DL 1080p Latino WEBDL gratis en mega.

Curious George: Royal Monkey (2019) WEB-DL 1080p Latino pelicula full hd, Curious George: Royal Monkey (2019) WEB-DL 1080p Latino mega latino, Curious George: Royal Monkey (2019) WEB-DL 1080p Latino 4k latino, Curious George: Royal Monkey (2019) WEB-DL 1080p Latino pelicula completa, Curious George: Royal Monkey (2019) WEB-DL 1080p Latino descargar gratis, descargar Curious George: Royal Monkey (2019) WEB-DL 1080p Latino pelicula latino, Curious George: Royal Monkey (2019) WEB-DL 1080p Latino 1 link mega, Curious George: Royal Monkey (2019) WEB-DL 1080p Latino 1 link google drive, Curious George: Royal Monkey (2019) WEB-DL 1080p Latino hd 1080p latino.
Comentarios 0