×

¿Problemas para descargar con Mozilla, EDGE? Deshabilita la opción "Abrir vinculos en una pestaña nueva" tal como lo muestra ésta imagen.

Culto A Chucky (2017) UNRATED Full HD 1080p Latino

4.025 vistas

Información de Culto A Chucky (2017) UNRATED Full HD 1080p Latino

Datos de la película

  • Calidad: Full 1080p
  • Audio: Español Latino DTS 5.1 BLURAY - Ingles DTS 5.1 BLURAY
  • Subtitulos: Español Latino PGS - Ingles PGS
  • Resolución: 1920x1080p
  • Formato: MKV
  • Codec: H.264
  • Encoder: Dpelis1
  • Mediainfo: Clic para Mostrar Datos Ver
  • Culto A Chucky (2017) Full HD 1080p Latino-CMHDD.mkv
    Format                      : Matroska
    Format version              : Version 4
    File size                   : 5.69 GiB
    Duration                    : 1 h 30 min
    Overall bit rate            : 8 953 kb/s
    Movie name                  : Cult of Chucky (2017) CinemaniaHDD.Net
    Encoded date                : UTC 2022-07-22 05:43:08
    Writing application         : mkvmerge v56.1.0 ('My Friend') 64-bit
    Writing library             : libebml v1.4.2 + libmatroska v1.6.4
    Attachments                 : CINEMANIAHD.png

    Video
    ID                          : 1
    Format                      : AVC
    Format/Info                 : Advanced Video Codec
    Format profile              : High@L4.1
    Format settings             : CABAC / 4 Ref Frames
    Format settings, CABAC      : Yes
    Format settings, Reference  : 4 frames
    Codec ID                    : V_MPEG4/ISO/AVC
    Duration                    : 1 h 30 min
    Bit rate                    : 6 657 kb/s
    Width                       : 1 920 pixels
    Height                      : 1 080 pixels
    Display aspect ratio        : 16:9
    Frame rate mode             : Constant
    Frame rate                  : 23.976 (24000/1001) FPS
    Color space                 : YUV
    Chroma subsampling          : 4:2:0
    Bit depth                   : 8 bits
    Scan type                   : Progressive
    Bits/(Pixel*Frame)          : 0.134
    Stream size                 : 4.23 GiB (74%)
    Title                       : Full HD1080p [CinemaniaHDD]
    Writing library             : x264 core 148 r2708 86b7198
    Encoding settings           : cabac=1 / ref=4 / deblock=1:0:0 / analyse=0x3:0x133 / me=esa / subme=10 / psy=1 / psy_rd=1.00:0.00 / mixed_ref=1 / me_range=24 / chroma_me=1 / trellis=2 / 8x8dct=1 / cqm=0 / deadzone=21,11 / fast_pskip=1 / chroma_qp_offset=-2 / threads=34 / lookahead_threads=5 / sliced_threads=0 / nr=0 / decimate=1 / interlaced=0 / bluray_compat=0 / constrained_intra=0 / bframes=8 / b_pyramid=2 / b_adapt=2 / b_bias=0 / direct=3 / weightb=1 / open_gop=0 / weightp=2 / keyint=240 / keyint_min=24 / scenecut=40 / intra_refresh=0 / rc_lookahead=60 / rc=crf / mbtree=1 / crf=20.0 / qcomp=0.60 / qpmin=0 / qpmax=69 / qpstep=4 / vbv_maxrate=62500 / vbv_bufsize=78125 / crf_max=0.0 / nal_hrd=none / filler=0 / ip_ratio=1.40 / aq=1:1.00
    Default                     : Yes
    Forced                      : No
    Color range                 : Limited
    Color primaries             : BT.709
    Transfer characteristics    : BT.709
    Matrix coefficients         : BT.709

    Audio #1
    ID                          : 2
    Format                      : DTS
    Format/Info                 : Digital Theater Systems
    Codec ID                    : A_DTS
    Duration                    : 1 h 30 min
    Bit rate mode               : Constant
    Bit rate                    : 768 kb/s
    Channel(s)                  : 6 channels
    Channel layout              : C L R Ls Rs LFE
    Sampling rate               : 48.0 kHz
    Frame rate                  : 93.750 FPS (512 SPF)
    Bit depth                   : 24 bits
    Compression mode            : Lossy
    Stream size                 : 500 MiB (9%)
    Title                       : Español Latino [CinemaniaHDD]
    Language                    : Spanish
    Default                     : Yes
    Forced                      : No

    Audio #2
    ID                          : 3
    Format                      : DTS
    Format/Info                 : Digital Theater Systems
    Codec ID                    : A_DTS
    Duration                    : 1 h 30 min
    Bit rate mode               : Constant
    Bit rate                    : 1 509 kb/s
    Channel(s)                  : 6 channels
    Channel layout              : C L R Ls Rs LFE
    Sampling rate               : 48.0 kHz
    Frame rate                  : 93.750 FPS (512 SPF)
    Bit depth                   : 24 bits
    Compression mode            : Lossy
    Stream size                 : 982 MiB (17%)
    Title                       : Ingles [CinemaniaHDD]
    Language                    : English
    Default                     : No
    Forced                      : No

    Text #1
    ID                          : 4
    Format                      : PGS
    Muxing mode                 : zlib
    Codec ID                    : S_HDMV/PGS
    Codec ID/Info               : Picture based subtitle format used on BDs/HD-DVDs
    Duration                    : 1 h 27 min
    Bit rate                    : 523 b/s
    Count of elements           : 36
    Stream size                 : 334 KiB (0%)
    Title                       : Forzados-PGS [CinemaniaHDD]
    Language                    : Spanish
    Default                     : Yes
    Forced                      : No

    Text #2
    ID                          : 5
    Format                      : PGS
    Muxing mode                 : zlib
    Codec ID                    : S_HDMV/PGS
    Codec ID/Info               : Picture based subtitle format used on BDs/HD-DVDs
    Duration                    : 1 h 30 min
    Bit rate                    : 21.7 kb/s
    Count of elements           : 1731
    Stream size                 : 14.0 MiB (0%)
    Title                       : Español-PGS [CinemaniaHDD]
    Language                    : Spanish
    Default                     : No
    Forced                      : No

    Text #3
    ID                          : 6
    Format                      : PGS
    Muxing mode                 : zlib
    Codec ID                    : S_HDMV/PGS
    Codec ID/Info               : Picture based subtitle format used on BDs/HD-DVDs
    Duration                    : 1 h 30 min
    Bit rate                    : 27.9 kb/s
    Count of elements           : 2115
    Stream size                 : 18.0 MiB (0%)
    Title                       : Ingles-PGS [CinemaniaHDD]
    Language                    : English
    Default                     : No
    Forced                      : No

    Text #4
    ID                          : 7
    Format                      : UTF-8
    Codec ID                    : S_TEXT/UTF8
    Codec ID/Info               : UTF-8 Plain Text
    Duration                    : 41 min 51 s
    Bit rate                    : 1 b/s
    Count of elements           : 10
    Stream size                 : 423 Bytes (0%)
    Title                       : Forzados-SRT [CinemaniaHDD]
    Language                    : Spanish
    Default                     : No
    Forced                      : Yes

    Text #5
    ID                          : 8
    Format                      : UTF-8
    Codec ID                    : S_TEXT/UTF8
    Codec ID/Info               : UTF-8 Plain Text
    Duration                    : 1 h 29 min
    Bit rate                    : 34 b/s
    Count of elements           : 861
    Stream size                 : 22.6 KiB (0%)
    Title                       : Español-SRT [CinemaniaHDD]
    Language                    : Spanish
    Default                     : No
    Forced                      : No

    Menu
    00:00:00.000                : :Chapter 1
    00:02:36.573                : :Chapter 2
    00:07:26.571                : :Chapter 3
    00:11:59.260                : :Chapter 4
    00:15:36.853                : :Chapter 5
    00:19:20.451                : :Chapter 6
    00:25:09.008                : :Chapter 7
    00:29:37.276                : :Chapter 8
    00:33:01.730                : :Chapter 9
    00:38:30.892                : :Chapter 10
    00:46:01.133                : :Chapter 11
    00:51:16.949                : :Chapter 12
    00:56:06.029                : :Chapter 13
    01:01:22.470                : :Chapter 14
    01:08:10.878                : :Chapter 15
    01:12:07.782                : :Chapter 16
    01:17:08.666                : :Chapter 17
    01:21:58.163                : :Chapter 18
    01:24:33.485                : :Chapter 19
    01:26:59.715                : :Chapter 20

  • Peso: 5.69 GiB

Sinopsis

Descargar Culto A Chucky (2017) UNRATED Full HD 1080p Latino. Encerrada durante los últimos 4 años en un psiquiátrico, Nica Pierce está convencida erróneamente de que ella, y no Chucky, asesinó a toda su familia. Pero cuando su psiquiatra introduce una nueva «herramienta» para facilitar la sesiones en grupo de sus pacientes -un muñeco con una inocente sonrisa- empieza una cadena de extrañas muertes en el psiquiátrico, y Nica empieza a preguntarse si al final no estará tan loca como creía.

RESUBIDO!!!

Ficha técnica

Video trailer de la película

Enlaces de descarga

Rip de Bluray

Descargar Culto A Chucky (2017) UNRATED Full HD 1080p Latino




Aportes de DPeliculasHDmega la pass es:dpeliculashdmega.org Aportes de CinemaniaHD la pass es:cinemaniahdd.com

Películas relacionadas

Culto A Chucky (2017) UNRATED Full HD 1080p Latino pelicula full hd, Culto A Chucky (2017) UNRATED Full HD 1080p Latino mega latino, Culto A Chucky (2017) UNRATED Full HD 1080p Latino 4k latino, Culto A Chucky (2017) UNRATED Full HD 1080p Latino pelicula completa, Culto A Chucky (2017) UNRATED Full HD 1080p Latino descargar gratis, descargar Culto A Chucky (2017) UNRATED Full HD 1080p Latino pelicula latino, Culto A Chucky (2017) UNRATED Full HD 1080p Latino 1 link mega, Culto A Chucky (2017) UNRATED Full HD 1080p Latino 1 link google drive, Culto A Chucky (2017) UNRATED Full HD 1080p Latino hd 1080p latino.
Comentarios 9
  • GURI - 09 octubre, 2017

    GRACIAS SOY NUEVO Y MEGUSTU ESTA PAGINA LA CALIDA ES TREMENDA QUE SIGAN SI GRCIAS

    • dpelis - 09 octubre, 2017

      bienvenido. saludos

  • slash - 29 septiembre, 2017

    Muchas gracias.

  • hizaki_86 - 28 septiembre, 2017

    Muchas gracias por esta versión, saludos.

  • paulo - 28 septiembre, 2017

    gracias x la pelicula empezando con la descarga

  • juan - 28 septiembre, 2017

    pregunta estimado cuando saldrá la versión pesada de piratas del caribe y la extendida de alien????

    • dpelis - 28 septiembre, 2017

      cuando haya bd final latino

  • Isaac - 27 septiembre, 2017

    ¿Es la Unrated?

    • dpelis - 27 septiembre, 2017

      SI Estimado