×

¿Problemas para descargar con Mozilla, EDGE? Deshabilita la opción "Abrir vinculos en una pestaña nueva" tal como lo muestra ésta imagen.

Cuentos que no son cuentos (2008) REMUX 1080p Latino – CMHDD

418 vistas

Información de Cuentos que no son cuentos (2008) REMUX 1080p Latino – CMHDD

Datos de la película

  • Calidad: Full 1080p
  • Audio: Español Latino AC3 5.1 BLURAY - Ingles DTS 5.1 BLURAY
  • Subtitulos: Español Latino SRT- FORZADOS SRT
  • Resolución: 1920x1080p
  • Formato: MKV
  • Codec: H.264
  • Encoder: Dracarys
  • Mediainfo: Clic para Mostrar Datos Ver
  • Format                      : Matroska
    Format version              : Version 4
    File size                   : 19.2 GiB
    Duration                    : 1 h 39 min
    Overall bit rate mode       : Variable
    Overall bit rate            : 27.7 Mb/s
    Movie name                  : Cuentos que no son cuentos (2008) REMUX 1080p Latino - CMHDD
    Encoded date                : UTC 2020-05-17 08:51:45
    Writing application         : mkvmerge v46.0.0 ('No Deeper Escape') 64-bit
    Writing library             : libebml v1.3.10 + libmatroska v1.5.2

    Video
    ID                          : 1
    Format                      : AVC
    Format/Info                 : Advanced Video Codec
    Format profile              : High@L4.1
    Format settings             : CABAC / 3 Ref Frames
    Format settings, CABAC      : Yes
    Format settings, Reference  : 3 frames
    Codec ID                    : V_MPEG4/ISO/AVC
    Duration                    : 1 h 39 min
    Bit rate mode               : Variable
    Bit rate                    : 23.4 Mb/s
    Maximum bit rate            : 36.0 Mb/s
    Width                       : 1 920 pixels
    Height                      : 1 080 pixels
    Display aspect ratio        : 16:9
    Frame rate mode             : Constant
    Frame rate                  : 23.976 (24000/1001) FPS
    Standard                    : NTSC
    Color space                 : YUV
    Chroma subsampling          : 4:2:0
    Bit depth                   : 8 bits
    Scan type                   : Progressive
    Bits/(Pixel*Frame)          : 0.470
    Stream size                 : 16.2 GiB (84%)
    Default                     : Yes
    Forced                      : No
    Color range                 : Limited

    Audio #1
    ID                          : 2
    Format                      : AC-3
    Format/Info                 : Audio Coding 3
    Commercial name             : Dolby Digital
    Codec ID                    : A_AC3
    Duration                    : 1 h 39 min
    Bit rate mode               : Constant
    Bit rate                    : 384 kb/s
    Channel(s)                  : 6 channels
    Channel layout              : L R C LFE Ls Rs
    Sampling rate               : 48.0 kHz
    Frame rate                  : 31.250 FPS (1536 SPF)
    Compression mode            : Lossy
    Stream size                 : 272 MiB (1%)
    Language                    : Spanish
    Service kind                : Complete Main
    Default                     : Yes
    Forced                      : No

    Audio #2
    ID                          : 3
    Format                      : DTS XLL
    Format/Info                 : Digital Theater Systems
    Commercial name             : DTS-HD Master Audio
    Codec ID                    : A_DTS
    Duration                    : 1 h 39 min
    Bit rate mode               : Variable
    Bit rate                    : 3 937 kb/s
    Channel(s)                  : 6 channels
    Channel layout              : C L R Ls Rs LFE
    Sampling rate               : 48.0 kHz
    Frame rate                  : 93.750 FPS (512 SPF)
    Bit depth                   : 24 bits
    Compression mode            : Lossless
    Stream size                 : 2.73 GiB (14%)
    Language                    : English
    Default                     : No
    Forced                      : No

    Text #1
    ID                          : 4
    Format                      : UTF-8
    Codec ID                    : S_TEXT/UTF8
    Codec ID/Info               : UTF-8 Plain Text
    Duration                    : 1 h 38 min
    Bit rate                    : 68 b/s
    Count of elements           : 1458
    Stream size                 : 49.6 KiB (0%)
    Language                    : Spanish
    Default                     : No
    Forced                      : No

    Text #2
    ID                          : 5
    Format                      : PGS
    Muxing mode                 : zlib
    Codec ID                    : S_HDMV/PGS
    Codec ID/Info               : Picture based subtitle format used on BDs/HD-DVDs
    Duration                    : 1 h 33 min
    Bit rate                    : 67.3 kb/s
    Count of elements           : 2914
    Stream size                 : 44.8 MiB (0%)
    Language                    : Spanish
    Default                     : No
    Forced                      : No

    Menu
    00:00:00.000                : :Capítulo 01
    00:05:28.703                : :Capítulo 02
    00:09:19.725                : :Capítulo 03
    00:14:44.758                : :Capítulo 04
    00:19:02.432                : :Capítulo 05
    00:24:25.338                : :Capítulo 06
    00:30:07.263                : :Capítulo 07
    00:35:06.979                : :Capítulo 08
    00:40:27.800                : :Capítulo 09
    00:45:15.462                : :Capítulo 10
    00:52:11.920                : :Capítulo 11
    00:56:57.288                : :Capítulo 12
    01:03:36.020                : :Capítulo 13
    01:08:50.459                : :Capítulo 14
    01:14:21.290                : :Capítulo 15
    01:19:25.802                : :Capítulo 16
    01:23:05.146                : :Capítulo 17
    01:26:24.304                : :Capítulo 18
    01:30:36.597                : :Capítulo 19
    01:32:34.298                : :Capítulo 20

  • Peso: 19.2 GiB

Sinopsis

La vida de Skeeter Bronson (Adam Sandler), un empleado de hotel, se complica cuando, de repente y misteriosamente, los cuentos que lee a sus sobrinos para que se duerman, se convierten en realidad.

Ficha técnica

Video trailer de la película

Enlaces de descarga

Rip de Bluray

Descargar Cuentos que no son cuentos (2008) REMUX 1080p Latino – CMHDD




Aportes de DPeliculasHDmega la pass es:dpeliculashdmega.org Aportes de CinemaniaHD la pass es:cinemaniahdd.com
Guardado en : Comedia , Familia , Fantasía , Remux , Romance

Películas relacionadas

descargar Cuentos que no son cuentos (2008) REMUX 1080p Latino – CMHDD Full 1080p 1080p gratis, Cuentos que no son cuentos (2008) REMUX 1080p Latino – CMHDD Full 1080p mega 1 link, Cuentos que no son cuentos (2008) REMUX 1080p Latino – CMHDD Full 1080p pelicula completa, descargar Cuentos que no son cuentos (2008) REMUX 1080p Latino – CMHDD Full 1080p gratis en mega.

Cuentos que no son cuentos (2008) REMUX 1080p Latino – CMHDD pelicula full hd, Cuentos que no son cuentos (2008) REMUX 1080p Latino – CMHDD mega latino, Cuentos que no son cuentos (2008) REMUX 1080p Latino – CMHDD 4k latino, Cuentos que no son cuentos (2008) REMUX 1080p Latino – CMHDD pelicula completa, Cuentos que no son cuentos (2008) REMUX 1080p Latino – CMHDD descargar gratis, descargar Cuentos que no son cuentos (2008) REMUX 1080p Latino – CMHDD pelicula latino, Cuentos que no son cuentos (2008) REMUX 1080p Latino – CMHDD 1 link mega, Cuentos que no son cuentos (2008) REMUX 1080p Latino – CMHDD 1 link google drive, Cuentos que no son cuentos (2008) REMUX 1080p Latino – CMHDD hd 1080p latino.
Comentarios 0