×

¿Problemas para descargar con Mozilla, EDGE? Deshabilita la opción "Abrir vinculos en una pestaña nueva" tal como lo muestra ésta imagen.

Cuentos que no son cuentos (2008) HD 1080p Latino – CMHDD

411 vistas

Información de Cuentos que no son cuentos (2008) HD 1080p Latino – CMHDD

Datos de la película

  • Calidad: 1080p
  • Audio: Español Latino AC3 5.1 BLURAY - Ingles AC3 5.1 BLURAY
  • Subtitulos: Español Latino SRT
  • Resolución: 1920x816
  • Formato: MKV
  • Codec: H.264
  • Encoder: Dracarys
  • Mediainfo: Clic para Mostrar Datos Ver
  • Format                      : Matroska
    Format version              : Version 4
    File size                   : 3.10 GiB
    Duration                    : 1 h 39 min
    Overall bit rate            : 4 476 kb/s
    Movie name                  : Cuentos que no son cuentos (2008) HD 1080p Latino - CMHDD
    Encoded date                : UTC 2020-05-17 09:14:34
    Writing application         : mkvmerge v46.0.0 ('No Deeper Escape') 64-bit
    Writing library             : libebml v1.3.10 + libmatroska v1.5.2

    Video
    ID                          : 1
    Format                      : AVC
    Format/Info                 : Advanced Video Codec
    Format profile              : High@L4.1
    Format settings             : CABAC / 5 Ref Frames
    Format settings, CABAC      : Yes
    Format settings, Reference  : 5 frames
    Codec ID                    : V_MPEG4/ISO/AVC
    Duration                    : 1 h 39 min
    Bit rate                    : 3 500 kb/s
    Width                       : 1 920 pixels
    Height                      : 816 pixels
    Display aspect ratio        : 2.35:1
    Frame rate mode             : Constant
    Frame rate                  : 23.976 (24000/1001) FPS
    Color space                 : YUV
    Chroma subsampling          : 4:2:0
    Bit depth                   : 8 bits
    Scan type                   : Progressive
    Bits/(Pixel*Frame)          : 0.093
    Stream size                 : 2.39 GiB (77%)
    Writing library             : x264 core 157 r2935 545de2f
    Encoding settings           : cabac=1 / ref=5 / deblock=1:0:0 / analyse=0x3:0x113 / me=hex / subme=8 / psy=1 / psy_rd=1.00:0.00 / mixed_ref=1 / me_range=16 / chroma_me=1 / trellis=2 / 8x8dct=1 / cqm=0 / deadzone=21,11 / fast_pskip=1 / chroma_qp_offset=-2 / threads=24 / lookahead_threads=4 / sliced_threads=0 / nr=0 / decimate=1 / interlaced=0 / bluray_compat=0 / constrained_intra=0 / bframes=3 / b_pyramid=2 / b_adapt=1 / b_bias=0 / direct=3 / weightb=1 / open_gop=0 / weightp=2 / keyint=240 / keyint_min=24 / scenecut=40 / intra_refresh=0 / rc_lookahead=50 / rc=abr / mbtree=1 / bitrate=3500 / ratetol=1.0 / qcomp=0.60 / qpmin=0 / qpmax=69 / qpstep=4 / vbv_maxrate=62500 / vbv_bufsize=78125 / nal_hrd=none / filler=0 / ip_ratio=1.40 / aq=1:1.00
    Default                     : Yes
    Forced                      : No
    Color range                 : Limited
    Color primaries             : BT.709
    Transfer characteristics    : BT.709
    Matrix coefficients         : BT.709

    Audio #1
    ID                          : 2
    Format                      : AC-3
    Format/Info                 : Audio Coding 3
    Commercial name             : Dolby Digital
    Codec ID                    : A_AC3
    Duration                    : 1 h 39 min
    Bit rate mode               : Constant
    Bit rate                    : 384 kb/s
    Channel(s)                  : 6 channels
    Channel layout              : L R C LFE Ls Rs
    Sampling rate               : 48.0 kHz
    Frame rate                  : 31.250 FPS (1536 SPF)
    Compression mode            : Lossy
    Delay relative to video     : -5 ms
    Stream size                 : 272 MiB (9%)
    Language                    : Spanish
    Service kind                : Complete Main
    Default                     : Yes
    Forced                      : No

    Audio #2
    ID                          : 3
    Format                      : AC-3
    Format/Info                 : Audio Coding 3
    Commercial name             : Dolby Digital
    Codec ID                    : A_AC3
    Duration                    : 1 h 39 min
    Bit rate mode               : Constant
    Bit rate                    : 640 kb/s
    Channel(s)                  : 6 channels
    Channel layout              : L R C LFE Ls Rs
    Sampling rate               : 48.0 kHz
    Frame rate                  : 31.250 FPS (1536 SPF)
    Compression mode            : Lossy
    Delay relative to video     : -5 ms
    Stream size                 : 454 MiB (14%)
    Language                    : English
    Service kind                : Complete Main
    Default                     : No
    Forced                      : No

    Text
    ID                          : 4
    Format                      : UTF-8
    Codec ID                    : S_TEXT/UTF8
    Codec ID/Info               : UTF-8 Plain Text
    Duration                    : 1 h 33 min
    Bit rate                    : 74 b/s
    Count of elements           : 1457
    Stream size                 : 51.0 KiB (0%)
    Language                    : Spanish
    Default                     : Yes
    Forced                      : No

    Menu
    00:00:00.000                : :Capítulo 01
    00:05:28.787                : :Capítulo 02
    00:09:19.726                : :Capítulo 03
    00:14:44.759                : :Capítulo 04
    00:19:02.433                : :Capítulo 05
    00:24:25.339                : :Capítulo 06
    00:30:07.306                : :Capítulo 07
    00:35:06.980                : :Capítulo 08
    00:40:27.884                : :Capítulo 09
    00:45:15.463                : :Capítulo 10
    00:52:11.962                : :Capítulo 11
    00:56:57.289                : :Capítulo 12
    01:03:36.021                : :Capítulo 13
    01:08:50.501                : :Capítulo 14
    01:14:21.374                : :Capítulo 15
    01:19:25.803                : :Capítulo 16
    01:23:05.147                : :Capítulo 17
    01:26:24.388                : :Capítulo 18
    01:30:36.598                : :Capítulo 19
    01:32:34.299                : :Capítulo 20

  • Peso: 3.10 GiB

Sinopsis

La vida de Skeeter Bronson (Adam Sandler), un empleado de hotel, se complica cuando, de repente y misteriosamente, los cuentos que lee a sus sobrinos para que se duerman, se convierten en realidad.

Ficha técnica

Video trailer de la película

Enlaces de descarga

Rip de Bluray

Descargar Cuentos que no son cuentos (2008) HD 1080p Latino – CMHDD




Aportes de DPeliculasHDmega la pass es:dpeliculashdmega.org Aportes de CinemaniaHD la pass es:cinemaniahdd.com
Guardado en : Comedia , Familia , Fantasía , HD 1080p , Romance

Películas relacionadas

  • Jaula Mental (2022) HD 1080p Latino

    Jaula Mental (2022) HD 1080p Latino

    2022
    Jaula Mental (2022) HD 1080p Latino

    1h 47m 2022

    Descargar Jaula Mental (2022) HD 1080p Latino. Cuando un asesino que imita otros crímenes comienza a...

    Director: Mauro Borrelli

    Género: Crimen

    Actores: Victoria Fox

  • Transfusion (2023) HD 1080p Latino

    Transfusion (2023) HD 1080p Latino

    2023
    Transfusion (2023) HD 1080p Latino

    1h 45m 2023

    Descargar Transfusion (2023) HD 1080p Latino. Un antiguo agente de las Fuerzas Especiales se ve empujado...

    Director: Matt Nable

    Género: Crimen

    Actores: Trystan Go

  • Gladiador (2000) EXTENDED CUT 1080p Latino

    Gladiador (2000) EXTENDED CUT 1080p Latino

    2000
    Gladiador (2000) EXTENDED CUT 1080p Latino

    2h 35m 2000

    Gladiador (2000) EXTENDED CUT 1080p Latino. Máximo, General de las Legiones Romanas, es querido por...

    Director: Ridley Scott

    Género: Acción

    Actores: Tony Curran

  • Mi amigo el dragón (2016) Full HD 1080p Latino

    Mi amigo el dragón (2016) Full HD 1080p Latino

    2016
    Mi amigo el dragón (2016) Full HD 1080p Latino

    1h 43m 2016

    Descargar Mi amigo el dragón (2016) Full HD 1080p Latino. Durante años el Sr. Meacham, un viejo tallador...

    Director: Joe Nolan

    Género: Aventura

    Actores: William J. Rawbone

descargar Cuentos que no son cuentos (2008) HD 1080p Latino – CMHDD 1080p 1080p gratis, Cuentos que no son cuentos (2008) HD 1080p Latino – CMHDD 1080p mega 1 link, Cuentos que no son cuentos (2008) HD 1080p Latino – CMHDD 1080p pelicula completa, descargar Cuentos que no son cuentos (2008) HD 1080p Latino – CMHDD 1080p gratis en mega.

Cuentos que no son cuentos (2008) HD 1080p Latino – CMHDD pelicula full hd, Cuentos que no son cuentos (2008) HD 1080p Latino – CMHDD mega latino, Cuentos que no son cuentos (2008) HD 1080p Latino – CMHDD 4k latino, Cuentos que no son cuentos (2008) HD 1080p Latino – CMHDD pelicula completa, Cuentos que no son cuentos (2008) HD 1080p Latino – CMHDD descargar gratis, descargar Cuentos que no son cuentos (2008) HD 1080p Latino – CMHDD pelicula latino, Cuentos que no son cuentos (2008) HD 1080p Latino – CMHDD 1 link mega, Cuentos que no son cuentos (2008) HD 1080p Latino – CMHDD 1 link google drive, Cuentos que no son cuentos (2008) HD 1080p Latino – CMHDD hd 1080p latino.
Comentarios 0