×

¿Problemas para descargar con Mozilla, EDGE? Deshabilita la opción "Abrir vinculos en una pestaña nueva" tal como lo muestra ésta imagen.

Cuenta Regresiva (2022) AMZN WEB-DL 1080p Latino

559 vistas

Información de Cuenta Regresiva (2022) AMZN WEB-DL 1080p Latino

Datos de la película

  • Calidad: WEBDL
  • Audio: Español Latino AC3 5.1 WEB-DL - Ingles AC3 5.1 WEB-DL
  • Subtitulos: Español Latino SRT- FORZADOS SRT
  • Resolución: 1920x800p
  • Formato: MKV
  • Codec: H.264
  • Encoder: Melkor
  • Mediainfo: Clic para Mostrar Datos Ver
  • Cuenta Regresiva (2022) AMZN WebDL 1080p Latino.mkv
    Format                      : Matroska
    Format version              : Version 4
    File size                   : 6.38 GiB
    Duration                    : 1 h 38 min
    Overall bit rate            : 9 232 kb/s
    Movie name                  : Hot Seat (2022) CinemaniaHDD.Net
    Encoded date                : UTC 2022-07-09 23:39:37
    Writing application         : mkvmerge v56.1.0 ('My Friend') 64-bit
    Writing library             : libebml v1.4.2 + libmatroska v1.6.4
    Attachments                 : CINEMANIAHD.png

    Video
    ID                          : 1
    Format                      : AVC
    Format/Info                 : Advanced Video Codec
    Format profile              : High@L4
    Format settings             : CABAC / 4 Ref Frames
    Format settings, CABAC      : Yes
    Format settings, Reference  : 4 frames
    Codec ID                    : V_MPEG4/ISO/AVC
    Duration                    : 1 h 38 min
    Bit rate mode               : Constant
    Bit rate                    : 8 141 kb/s
    Nominal bit rate            : 10 000 kb/s
    Width                       : 1 920 pixels
    Height                      : 800 pixels
    Display aspect ratio        : 2.40:1
    Frame rate mode             : Constant
    Frame rate                  : 23.976 (24000/1001) FPS
    Color space                 : YUV
    Chroma subsampling          : 4:2:0
    Bit depth                   : 8 bits
    Scan type                   : Progressive
    Bits/(Pixel*Frame)          : 0.221
    Stream size                 : 5.63 GiB (88%)
    Title                       : Web HD1080p [CinemaniaHDD]
    Default                     : Yes
    Forced                      : Yes
    Color range                 : Limited
    Color primaries             : BT.709
    Transfer characteristics    : BT.709
    Matrix coefficients         : BT.709

    Audio #1
    ID                          : 2
    Format                      : AC-3
    Format/Info                 : Audio Coding 3
    Commercial name             : Dolby Digital
    Codec ID                    : A_AC3
    Duration                    : 1 h 38 min
    Bit rate mode               : Constant
    Bit rate                    : 448 kb/s
    Channel(s)                  : 6 channels
    Channel layout              : L R C LFE Ls Rs
    Sampling rate               : 48.0 kHz
    Frame rate                  : 31.250 FPS (1536 SPF)
    Compression mode            : Lossy
    Stream size                 : 317 MiB (5%)
    Title                       : Español Latino [CinemaniaHDD]
    Language                    : Spanish
    Service kind                : Complete Main
    Default                     : Yes
    Forced                      : Yes

    Audio #2
    ID                          : 3
    Format                      : E-AC-3
    Format/Info                 : Enhanced AC-3
    Commercial name             : Dolby Digital Plus
    Codec ID                    : A_EAC3
    Duration                    : 1 h 38 min
    Bit rate mode               : Constant
    Bit rate                    : 640 kb/s
    Channel(s)                  : 6 channels
    Channel layout              : L R C LFE Ls Rs
    Sampling rate               : 48.0 kHz
    Frame rate                  : 31.250 FPS (1536 SPF)
    Compression mode            : Lossy
    Stream size                 : 453 MiB (7%)
    Title                       : Ingles [CinemaniaHDD]
    Language                    : English
    Service kind                : Complete Main
    Default                     : No
    Forced                      : No

    Text #1
    ID                          : 4
    Format                      : UTF-8
    Codec ID                    : S_TEXT/UTF8
    Codec ID/Info               : UTF-8 Plain Text
    Duration                    : 58 min 53 s
    Bit rate                    : 0 b/s
    Count of elements           : 14
    Stream size                 : 256 Bytes (0%)
    Title                       : Forzados-SRT [CinemaniaHDD]
    Language                    : Spanish
    Default                     : Yes
    Forced                      : Yes

    Text #2
    ID                          : 5
    Format                      : UTF-8
    Codec ID                    : S_TEXT/UTF8
    Codec ID/Info               : UTF-8 Plain Text
    Duration                    : 1 h 36 min
    Bit rate                    : 63 b/s
    Count of elements           : 1331
    Stream size                 : 44.8 KiB (0%)
    Title                       : Español-SRT [CinemaniaHDD]
    Language                    : Spanish
    Default                     : No
    Forced                      : No

    Text #3
    ID                          : 6
    Format                      : UTF-8
    Codec ID                    : S_TEXT/UTF8
    Codec ID/Info               : UTF-8 Plain Text
    Duration                    : 1 h 35 min
    Bit rate                    : 67 b/s
    Count of elements           : 1534
    Stream size                 : 47.2 KiB (0%)
    Title                       : Ingles-SRT [CinemaniaHDD]
    Language                    : English
    Default                     : No
    Forced                      : No

  • Peso: 6.38 GiB

Sinopsis

Descargar Cuenta Regresiva (2022) AMZN WEB-DL 1080p Latino. Un ex-hacker se ve obligado a entrar en instituciones bancarias de alto nivel, otro hombre debe intentar penetrar en el edificio con trampas explosivas para sacar al joven del banquillo.

Ficha técnica

Video trailer de la película

Enlaces de descarga

Rip de Bluray

Descargar Cuenta Regresiva (2022) AMZN WEB-DL 1080p Latino




Aportes de DPeliculasHDmega la pass es:dpeliculashdmega.org Aportes de CinemaniaHD la pass es:cinemaniahdd.com
Guardado en : Acción , Suspenso

Películas relacionadas

descargar Cuenta Regresiva (2022) AMZN WEB-DL 1080p Latino WEBDL 1080p gratis, Cuenta Regresiva (2022) AMZN WEB-DL 1080p Latino WEBDL mega 1 link, Cuenta Regresiva (2022) AMZN WEB-DL 1080p Latino WEBDL pelicula completa, descargar Cuenta Regresiva (2022) AMZN WEB-DL 1080p Latino WEBDL gratis en mega.

Cuenta Regresiva (2022) AMZN WEB-DL 1080p Latino pelicula full hd, Cuenta Regresiva (2022) AMZN WEB-DL 1080p Latino mega latino, Cuenta Regresiva (2022) AMZN WEB-DL 1080p Latino 4k latino, Cuenta Regresiva (2022) AMZN WEB-DL 1080p Latino pelicula completa, Cuenta Regresiva (2022) AMZN WEB-DL 1080p Latino descargar gratis, descargar Cuenta Regresiva (2022) AMZN WEB-DL 1080p Latino pelicula latino, Cuenta Regresiva (2022) AMZN WEB-DL 1080p Latino 1 link mega, Cuenta Regresiva (2022) AMZN WEB-DL 1080p Latino 1 link google drive, Cuenta Regresiva (2022) AMZN WEB-DL 1080p Latino hd 1080p latino.
Comentarios 0