×

¿Problemas para descargar con Mozilla, EDGE? Deshabilita la opción "Abrir vinculos en una pestaña nueva" tal como lo muestra ésta imagen.

Cuando termines de salvar el mundo (2022) AMZN WEB-DL 1080p Latino

250 vistas

Información de Cuando termines de salvar el mundo (2022) AMZN WEB-DL 1080p Latino

Datos de la película

  • Calidad: WEBDL
  • Audio: Español Latino AC3 5.1 WEB-DL - Ingles AC3 5.1 WEB-DL
  • Subtitulos: Español Latino SRT- FORZADOS SRT
  • Resolución: 1920x1040p
  • Formato: MKV
  • Codec: H.264
  • Encoder: Melkor
  • Mediainfo: Clic para Mostrar Datos Ver
  • Cuando termines de salvar el mundo (2022) AMZN WebDL 1080p Latino.mkv
    Format                      : Matroska
    Format version              : Version 4
    File size                   : 6.39 GiB
    Duration                    : 1 h 27 min
    Overall bit rate            : 10.4 Mb/s
    Movie name                  : When You Finish Saving the World (2022) CinemaniaHDD.Net
    Encoded date                : UTC 2023-08-01 07:04:49
    Writing application         : mkvmerge v56.1.0 ('My Friend') 64-bit
    Writing library             : libebml v1.4.2 + libmatroska v1.6.4
    Attachments                 : CINEMANIAHD.png
    Site                        : CinemaniaHDD.Net
    Uploader                    : Melkor

    Video
    ID                          : 1
    Format                      : AVC
    Format/Info                 : Advanced Video Codec
    Format profile              : High@L4
    Format settings             : CABAC / 4 Ref Frames
    Format settings, CABAC      : Yes
    Format settings, Reference  : 4 frames
    Codec ID                    : V_MPEG4/ISO/AVC
    Duration                    : 1 h 27 min
    Bit rate mode               : Constant
    Bit rate                    : 9 287 kb/s
    Nominal bit rate            : 10 000 kb/s
    Width                       : 1 920 pixels
    Height                      : 1 040 pixels
    Display aspect ratio        : 1.85:1
    Frame rate mode             : Constant
    Frame rate                  : 23.976 (24000/1001) FPS
    Color space                 : YUV
    Chroma subsampling          : 4:2:0
    Bit depth                   : 8 bits
    Scan type                   : Progressive
    Bits/(Pixel*Frame)          : 0.194
    Stream size                 : 5.68 GiB (89%)
    Title                       : Web HD1080p [CinemaniaHDD]
    Language                    : English
    Default                     : Yes
    Forced                      : Yes
    Color range                 : Limited
    Color primaries             : BT.709
    Transfer characteristics    : BT.709
    Matrix coefficients         : BT.709

    Audio #1
    ID                          : 2
    Format                      : AC-3
    Format/Info                 : Audio Coding 3
    Commercial name             : Dolby Digital
    Codec ID                    : A_AC3
    Duration                    : 1 h 27 min
    Bit rate mode               : Constant
    Bit rate                    : 384 kb/s
    Channel(s)                  : 6 channels
    Channel layout              : L R C LFE Ls Rs
    Sampling rate               : 48.0 kHz
    Frame rate                  : 31.250 FPS (1536 SPF)
    Compression mode            : Lossy
    Delay relative to video     : 9 ms
    Stream size                 : 241 MiB (4%)
    Title                       : Español Latino [CinemaniaHDD]
    Language                    : Spanish
    Service kind                : Complete Main
    Default                     : Yes
    Forced                      : Yes

    Audio #2
    ID                          : 3
    Format                      : E-AC-3 JOC
    Format/Info                 : Enhanced AC-3 with Joint Object Coding
    Commercial name             : Dolby Digital Plus with Dolby Atmos
    Codec ID                    : A_EAC3
    Duration                    : 1 h 27 min
    Bit rate mode               : Constant
    Bit rate                    : 768 kb/s
    Channel(s)                  : 6 channels
    Channel layout              : L R C LFE Ls Rs
    Sampling rate               : 48.0 kHz
    Frame rate                  : 31.250 FPS (1536 SPF)
    Compression mode            : Lossy
    Delay relative to video     : 51 ms
    Stream size                 : 481 MiB (7%)
    Title                       : Ingles [CinemaniaHDD]
    Language                    : English
    Service kind                : Complete Main
    Default                     : No
    Forced                      : No
    Complexity index            : 16
    Number of dynamic objects   : 15
    Bed channel count           : 1 channel
    Bed channel configuration   : LFE

    Text #1
    ID                          : 4
    Format                      : UTF-8
    Codec ID                    : S_TEXT/UTF8
    Codec ID/Info               : UTF-8 Plain Text
    Duration                    : 1 h 19 min
    Bit rate                    : 6 b/s
    Count of elements           : 117
    Stream size                 : 3.95 KiB (0%)
    Title                       : Forzados-SRT [CinemaniaHDD]
    Language                    : Spanish
    Default                     : Yes
    Forced                      : Yes

    Text #2
    ID                          : 5
    Format                      : UTF-8
    Codec ID                    : S_TEXT/UTF8
    Codec ID/Info               : UTF-8 Plain Text
    Duration                    : 1 h 22 min
    Bit rate                    : 71 b/s
    Count of elements           : 1124
    Stream size                 : 42.9 KiB (0%)
    Title                       : Español-SRT [CinemaniaHDD]
    Language                    : Spanish
    Default                     : No
    Forced                      : No

    Text #3
    ID                          : 6
    Format                      : UTF-8
    Codec ID                    : S_TEXT/UTF8
    Codec ID/Info               : UTF-8 Plain Text
    Duration                    : 1 h 27 min
    Bit rate                    : 91 b/s
    Count of elements           : 1784
    Stream size                 : 58.6 KiB (0%)
    Title                       : Ingles-SRT [CinemaniaHDD]
    Language                    : English
    Default                     : No
    Forced                      : No

    Menu
    00:00:00.051                : Chapter 01
    00:08:22.178                : Chapter 02
    00:19:39.313                : Chapter 03
    00:29:48.756                : Chapter 04
    00:38:26.107                : Chapter 05
    00:48:13.527                : Chapter 06
    00:58:05.953                : Chapter 07
    01:09:44.318                : Chapter 08
    01:15:27.912                : Chapter 09
    01:22:23.994                : Chapter 10

  • Peso: 6.39 GiB

Sinopsis

Descargar Cuando termines de salvar el mundo (2022) AMZN WEB-DL 1080p Latino. Evelyn y su inconsciente hijo Ziggy buscan sustitutos el uno para el otro, ya que Evelyn trata desesperadamente de criar a un adolescente sin pretensiones en su refugio, mientras que Ziggy se desvive por una joven brillante en la escuela.

Ficha técnica

Video trailer de la película

Enlaces de descarga

Rip de Bluray

Descargar Cuando termines de salvar el mundo (2022) AMZN WEB-DL 1080p Latino




Aportes de DPeliculasHDmega la pass es:dpeliculashdmega.org Aportes de CinemaniaHD la pass es:cinemaniahdd.com Aportes recientes:cinemaniahdd.net
Guardado en : Comedia , Drama

Películas relacionadas

  • Red de venganza (2023) HD 1080p Latino

    Red de venganza (2023) HD 1080p Latino

    2023
    Red de venganza (2023) HD 1080p Latino

    1h 25m 2023

    Descargar Red de venganza (2023) HD 1080p Latino. Analiza los problemas que surgen entre una madre (Summer...

    Director: Amy Redford

    Género: Drama

    Actores: Summer Phoenix

  • Red de venganza (2023) REMUX 1080p Latino

    Red de venganza (2023) REMUX 1080p Latino

    2023
    Red de venganza (2023) REMUX 1080p Latino

    1h 25m 2023

    Descargar Red de venganza (2023) REMUX 1080p Latino. Analiza los problemas que surgen entre una madre...

    Director: Amy Redford

    Género: Drama

    Actores: Summer Phoenix

  • Recuerdos Mortales (2024) WEB-DL 1080p Latino

    Recuerdos Mortales (2024) WEB-DL 1080p Latino

    2024
    Recuerdos Mortales (2024) WEB-DL 1080p Latino

    1h 52m 2024

    Descargar Recuerdos Mortales (2024) WEB-DL 1080p Latino. Después de someterse a un tratamiento de vanguardia...

    Director: Adam Cooper

    Género: Crimen

    Actores: Tommy Flanagan

descargar Cuando termines de salvar el mundo (2022) AMZN WEB-DL 1080p Latino WEBDL 1080p gratis, Cuando termines de salvar el mundo (2022) AMZN WEB-DL 1080p Latino WEBDL mega 1 link, Cuando termines de salvar el mundo (2022) AMZN WEB-DL 1080p Latino WEBDL pelicula completa, descargar Cuando termines de salvar el mundo (2022) AMZN WEB-DL 1080p Latino WEBDL gratis en mega.

Cuando termines de salvar el mundo (2022) AMZN WEB-DL 1080p Latino pelicula full hd, Cuando termines de salvar el mundo (2022) AMZN WEB-DL 1080p Latino mega latino, Cuando termines de salvar el mundo (2022) AMZN WEB-DL 1080p Latino 4k latino, Cuando termines de salvar el mundo (2022) AMZN WEB-DL 1080p Latino pelicula completa, Cuando termines de salvar el mundo (2022) AMZN WEB-DL 1080p Latino descargar gratis, descargar Cuando termines de salvar el mundo (2022) AMZN WEB-DL 1080p Latino pelicula latino, Cuando termines de salvar el mundo (2022) AMZN WEB-DL 1080p Latino 1 link mega, Cuando termines de salvar el mundo (2022) AMZN WEB-DL 1080p Latino 1 link google drive, Cuando termines de salvar el mundo (2022) AMZN WEB-DL 1080p Latino hd 1080p latino.
Comentarios 0