×

¿Problemas para descargar con Mozilla, EDGE? Deshabilita la opción "Abrir vinculos en una pestaña nueva" tal como lo muestra ésta imagen.

Cuando Sea Joven (2022) AMZN WEB-DL 1080p Latino

14 vistas

Información de Cuando Sea Joven (2022) AMZN WEB-DL 1080p Latino

Datos de la película

  • Calidad: WEBDL
  • Audio: Se especifica abajo de la Sinopsis
  • Subtitulos: No
  • Resolución: 1920x800p
  • Formato: MKV
  • Codec: H.264
  • Encoder: Melkor
  • Mediainfo: Clic para Mostrar Datos Ver
  • Cuando sea joven (2022) AMZN WebDL 1080p Latino.mkv
    Format                      : Matroska
    Format version              : Version 4
    File size                   : 7.22 GiB
    Duration                    : 1 h 55 min
    Overall bit rate mode       : Constant
    Overall bit rate            : 8 965 kb/s
    Movie name                  : Cuando sea joven (2022) CinemaniaHDD.Net
    Encoded date                : UTC 2022-11-18 04:58:34
    Writing application         : mkvmerge v56.1.0 ('My Friend') 64-bit
    Writing library             : libebml v1.4.2 + libmatroska v1.6.4
    Attachments                 : CINEMANIAHD.png

    Video
    ID                          : 1
    Format                      : AVC
    Format/Info                 : Advanced Video Codec
    Format profile              : High@L4
    Format settings             : CABAC / 4 Ref Frames
    Format settings, CABAC      : Yes
    Format settings, Reference  : 4 frames
    Codec ID                    : V_MPEG4/ISO/AVC
    Duration                    : 1 h 55 min
    Bit rate mode               : Constant
    Bit rate                    : 7 682 kb/s
    Nominal bit rate            : 10 000 kb/s
    Width                       : 1 920 pixels
    Height                      : 800 pixels
    Display aspect ratio        : 2.40:1
    Frame rate mode             : Constant
    Frame rate                  : 23.976 (24000/1001) FPS
    Color space                 : YUV
    Chroma subsampling          : 4:2:0
    Bit depth                   : 8 bits
    Scan type                   : Progressive
    Bits/(Pixel*Frame)          : 0.209
    Stream size                 : 6.19 GiB (86%)
    Title                       : WEB HD1080p [CinemaniaHDD]
    Language                    : English
    Default                     : Yes
    Forced                      : Yes
    Color range                 : Limited
    Color primaries             : BT.709
    Transfer characteristics    : BT.709
    Matrix coefficients         : BT.709

    Audio #1
    ID                          : 2
    Format                      : AC-3
    Format/Info                 : Audio Coding 3
    Commercial name             : Dolby Digital
    Codec ID                    : A_AC3
    Duration                    : 1 h 55 min
    Bit rate mode               : Constant
    Bit rate                    : 640 kb/s
    Channel(s)                  : 6 channels
    Channel layout              : L R C LFE Ls Rs
    Sampling rate               : 48.0 kHz
    Frame rate                  : 31.250 FPS (1536 SPF)
    Compression mode            : Lossy
    Stream size                 : 528 MiB (7%)
    Title                       : Español Latino [CinemaniaHDD]
    Language                    : Spanish
    Service kind                : Complete Main
    Default                     : Yes
    Forced                      : Yes

    Audio #2
    ID                          : 3
    Format                      : E-AC-3
    Format/Info                 : Enhanced AC-3
    Commercial name             : Dolby Digital Plus
    Codec ID                    : A_EAC3
    Duration                    : 1 h 55 min
    Bit rate mode               : Constant
    Bit rate                    : 640 kb/s
    Channel(s)                  : 6 channels
    Channel layout              : L R C LFE Ls Rs
    Sampling rate               : 48.0 kHz
    Frame rate                  : 31.250 FPS (1536 SPF)
    Compression mode            : Lossy
    Stream size                 : 528 MiB (7%)
    Title                       : Español Latino EAC3 [CinemaniaHDD]
    Language                    : Spanish
    Service kind                : Complete Main
    Default                     : No
    Forced                      : No

  • Peso: 7.22 GiB

Sinopsis

Descargar Cuando Sea Joven (2022) AMZN WEB-DL 1080p Latino. Una viuda de más de 70 años se da cuenta de que se está convirtiendo en una carga para su familia cuando, de repente, un día recupera misteriosamente su apariencia física de cuando tenía 20 años.

Español Latino EAC3 & AC3 5.1

Ficha técnica

Video trailer de la película

Enlaces de descarga

Rip de Bluray

Descargar Cuando Sea Joven (2022) AMZN WEB-DL 1080p Latino




Aportes de DPeliculasHDmega la pass es:dpeliculashdmega.org Aportes de CinemaniaHD la pass es:cinemaniahdd.com
Guardado en : Comedia , Fantasía

Películas relacionadas

descargar Cuando Sea Joven (2022) AMZN WEB-DL 1080p Latino WEBDL 1080p gratis, Cuando Sea Joven (2022) AMZN WEB-DL 1080p Latino WEBDL mega 1 link, Cuando Sea Joven (2022) AMZN WEB-DL 1080p Latino WEBDL pelicula completa, descargar Cuando Sea Joven (2022) AMZN WEB-DL 1080p Latino WEBDL gratis en mega.

Cuando Sea Joven (2022) AMZN WEB-DL 1080p Latino pelicula full hd, Cuando Sea Joven (2022) AMZN WEB-DL 1080p Latino mega latino, Cuando Sea Joven (2022) AMZN WEB-DL 1080p Latino 4k latino, Cuando Sea Joven (2022) AMZN WEB-DL 1080p Latino pelicula completa, Cuando Sea Joven (2022) AMZN WEB-DL 1080p Latino descargar gratis, descargar Cuando Sea Joven (2022) AMZN WEB-DL 1080p Latino pelicula latino, Cuando Sea Joven (2022) AMZN WEB-DL 1080p Latino 1 link mega, Cuando Sea Joven (2022) AMZN WEB-DL 1080p Latino 1 link google drive, Cuando Sea Joven (2022) AMZN WEB-DL 1080p Latino hd 1080p latino.
Comentarios 0