×

¿Problemas para descargar con Mozilla, EDGE? Deshabilita la opción "Abrir vinculos en una pestaña nueva" tal como lo muestra ésta imagen.

Cuando ellas quieren más (2023) HD 1080p Latino

485 vistas

Información de Cuando ellas quieren más (2023) HD 1080p Latino

Datos de la película

  • Calidad: 1080p
  • Audio: Español Latino AC3 5.1 BLURAY - Ingles AC3 5.1 BLURAY
  • Subtitulos: Español Latino SRT- FORZADOS SRT
  • Resolución: 1920x1036p
  • Formato: MKV
  • Codec: H.264
  • Encoder: Melkor
  • Mediainfo: Clic para Mostrar Datos Ver
  • Cuando Ellas Quieren Mas (2023) HD 1080p Latino.mkv
    Format                      : Matroska
    Format version              : Version 4
    File size                   : 3.42 GiB
    Duration                    : 1 h 47 min
    Overall bit rate            : 4 563 kb/s
    Movie name                  : Book Club. The Next Chapter (2023) CinemaniaHDD.Net
    Encoded date                : UTC 2023-07-08 06:27:06
    Writing application         : mkvmerge v56.1.0 ('My Friend') 64-bit
    Writing library             : libebml v1.4.2 + libmatroska v1.6.4
    Cover                       : Yes
    Attachments                 : cover.jpg

    Video
    ID                          : 1
    Format                      : AVC
    Format/Info                 : Advanced Video Codec
    Format profile              : High@L4.1
    Format settings             : CABAC / 4 Ref Frames
    Format settings, CABAC      : Yes
    Format settings, Reference  : 4 frames
    Codec ID                    : V_MPEG4/ISO/AVC
    Duration                    : 1 h 47 min
    Bit rate                    : 3 500 kb/s
    Width                       : 1 920 pixels
    Height                      : 1 036 pixels
    Display aspect ratio        : 1.85:1
    Frame rate mode             : Constant
    Frame rate                  : 23.976 (24000/1001) FPS
    Color space                 : YUV
    Chroma subsampling          : 4:2:0
    Bit depth                   : 8 bits
    Scan type                   : Progressive
    Bits/(Pixel*Frame)          : 0.073
    Stream size                 : 2.60 GiB (76%)
    Writing library             : x264 core 163 r3059 b684ebe0
    Encoding settings           : cabac=1 / ref=4 / deblock=1:-1:-1 / analyse=0x3:0x133 / me=umh / subme=9 / psy=1 / psy_rd=1.00:0.15 / mixed_ref=1 / me_range=16 / chroma_me=1 / trellis=2 / 8x8dct=1 / cqm=0 / deadzone=21,11 / fast_pskip=1 / chroma_qp_offset=-3 / threads=24 / lookahead_threads=2 / sliced_threads=0 / nr=0 / decimate=1 / interlaced=0 / bluray_compat=0 / constrained_intra=0 / bframes=3 / b_pyramid=2 / b_adapt=2 / b_bias=0 / direct=3 / weightb=1 / open_gop=0 / weightp=2 / keyint=240 / keyint_min=24 / scenecut=40 / intra_refresh=0 / rc_lookahead=60 / rc=abr / mbtree=1 / bitrate=3500 / ratetol=1.0 / qcomp=0.60 / qpmin=0 / qpmax=69 / qpstep=4 / vbv_maxrate=62500 / vbv_bufsize=78125 / nal_hrd=none / filler=0 / ip_ratio=1.40 / aq=1:1.00
    Default                     : Yes
    Forced                      : No
    Color range                 : Limited
    Color primaries             : BT.709
    Transfer characteristics    : BT.709
    Matrix coefficients         : BT.709

    Audio #1
    ID                          : 2
    Format                      : AC-3
    Format/Info                 : Audio Coding 3
    Commercial name             : Dolby Digital
    Codec ID                    : A_AC3
    Duration                    : 1 h 47 min
    Bit rate mode               : Constant
    Bit rate                    : 640 kb/s
    Channel(s)                  : 6 channels
    Channel layout              : L R C LFE Ls Rs
    Sampling rate               : 48.0 kHz
    Frame rate                  : 31.250 FPS (1536 SPF)
    Compression mode            : Lossy
    Delay relative to video     : -5 ms
    Stream size                 : 491 MiB (14%)
    Title                       : Español Latino [CinemaniaHDD]
    Language                    : Spanish
    Service kind                : Complete Main
    Default                     : Yes
    Forced                      : No

    Audio #2
    ID                          : 3
    Format                      : AC-3
    Format/Info                 : Audio Coding 3
    Commercial name             : Dolby Digital
    Codec ID                    : A_AC3
    Duration                    : 1 h 47 min
    Bit rate mode               : Constant
    Bit rate                    : 448 kb/s
    Channel(s)                  : 6 channels
    Channel layout              : L R C LFE Ls Rs
    Sampling rate               : 48.0 kHz
    Frame rate                  : 31.250 FPS (1536 SPF)
    Compression mode            : Lossy
    Delay relative to video     : -5 ms
    Stream size                 : 344 MiB (10%)
    Title                       : Ingles [CinemaniaHDD]
    Language                    : English
    Service kind                : Complete Main
    Default                     : No
    Forced                      : No

    Text #1
    ID                          : 4
    Format                      : UTF-8
    Codec ID                    : S_TEXT/UTF8
    Codec ID/Info               : UTF-8 Plain Text
    Duration                    : 31 min 44 s
    Bit rate                    : 0 b/s
    Count of elements           : 6
    Stream size                 : 231 Bytes (0%)
    Title                       : Forzados-SRT [CinemaniaHDD]
    Language                    : Spanish
    Default                     : Yes
    Forced                      : Yes

    Text #2
    ID                          : 5
    Format                      : UTF-8
    Codec ID                    : S_TEXT/UTF8
    Codec ID/Info               : UTF-8 Plain Text
    Duration                    : 1 h 37 min
    Bit rate                    : 75 b/s
    Count of elements           : 1908
    Stream size                 : 54.2 KiB (0%)
    Title                       : Español-SRT [CinemaniaHDD]
    Language                    : Spanish
    Default                     : No
    Forced                      : No

    Menu
    00:00:00.000                : :Chapter 1
    00:05:45.053                : :Chapter 2
    00:10:50.775                : :Chapter 3
    00:15:17.166                : :Chapter 4
    00:20:14.088                : :Chapter 5
    00:24:56.537                : :Chapter 6
    00:30:10.225                : :Chapter 7
    00:35:49.147                : :Chapter 8
    00:40:28.051                : :Chapter 9
    00:45:24.388                : :Chapter 10
    00:51:05.646                : :Chapter 11
    00:57:19.686                : :Chapter 12
    01:02:41.049                : :Chapter 13
    01:07:58.533                : :Chapter 14
    01:11:27.158                : :Chapter 15
    01:17:09.125                : :Chapter 16
    01:22:01.333                : :Chapter 17
    01:27:12.769                : :Chapter 18
    01:33:04.079                : :Chapter 19
    01:38:31.364                : :Chapter 20

  • Peso: 3.42 GiB

Sinopsis

Descargar Cuando ellas quieren más (2023) HD 1080p Latino. El grupo de cuatro amigas viaja a Italia con su club de lectura para disfrutar del viaje de chicas que nunca tuvieron. Pero cuando las cosas no salen según lo planeado y algunos secretos ven la luz, sus relajantes vacaciones se convertirán en una aventura única por todo el país.

Ficha técnica

Video trailer de la película

Enlaces de descarga

Rip de Bluray

Descargar Cuando ellas quieren más (2023) HD 1080p Latino




Aportes de DPeliculasHDmega la pass es:dpeliculashdmega.org Aportes de CinemaniaHD la pass es:cinemaniahdd.com Aportes recientes:cinemaniahdd.net
Guardado en : Comedia , HD 1080p , Romance

Películas relacionadas

  • Viviendo con mi ex (2006) REMUX 1080p Latino-CMHDD

    Viviendo con mi ex (2006) REMUX 1080p Latino-CMHDD

    2006
    Viviendo con mi ex (2006) REMUX 1080p Latino-CMHDD

    1h 46m 2006

    Descargar Viviendo con mi ex (2006) REMUX 1080p Latino-CMHDD. Relato sobre las consecuencias de una ruptura...

    Director: Todd Amateau

    Género: Comedia

    Actores: William Dick

  • The Lego Movie (2014) REMUX 4K HDR Latino – CMHDD

    The Lego Movie (2014) REMUX 4K HDR Latino – CMHDD

    2014
    The Lego Movie (2014) REMUX 4K HDR Latino – CMHDD

    1h 40m 2014

    Película basada en los clásicos juguetes LEGO. Emmet, el protagonista de la película, trabaja como...

    Director: Vernessa Cook

    Género: Animación

    Actores: Will Forte

  • The Lego Movie (2014) REMUX 1080p Latino – CMHDD

    The Lego Movie (2014) REMUX 1080p Latino – CMHDD

    2014
    The Lego Movie (2014) REMUX 1080p Latino – CMHDD

    1h 40m 2014

    Película basada en los clásicos juguetes LEGO. Emmet, el protagonista de la película, trabaja como...

    Director: Vernessa Cook

    Género: Animación

    Actores: Will Forte

descargar Cuando ellas quieren más (2023) HD 1080p Latino 1080p 1080p gratis, Cuando ellas quieren más (2023) HD 1080p Latino 1080p mega 1 link, Cuando ellas quieren más (2023) HD 1080p Latino 1080p pelicula completa, descargar Cuando ellas quieren más (2023) HD 1080p Latino 1080p gratis en mega.

Cuando ellas quieren más (2023) HD 1080p Latino pelicula full hd, Cuando ellas quieren más (2023) HD 1080p Latino mega latino, Cuando ellas quieren más (2023) HD 1080p Latino 4k latino, Cuando ellas quieren más (2023) HD 1080p Latino pelicula completa, Cuando ellas quieren más (2023) HD 1080p Latino descargar gratis, descargar Cuando ellas quieren más (2023) HD 1080p Latino pelicula latino, Cuando ellas quieren más (2023) HD 1080p Latino 1 link mega, Cuando ellas quieren más (2023) HD 1080p Latino 1 link google drive, Cuando ellas quieren más (2023) HD 1080p Latino hd 1080p latino.
Comentarios 2
  • John - 08 julio, 2023

    esos encriptadores de link que están suando ahora son una tortura.. son uy confusos, ya o se logra distinguir cual el el botón rela y cual es el de publicidad.. y se queda en ciclo infinito, cargando y cargando publicidad sin lograr llegar a ver el link del sitio de desarga

    • CinemaniaHDD - 09 julio, 2023

      hola, no tienes oportunidad de quejarte, si no te gustan adquiere VIP y todo listo.