Cuando ellas quieren (2018) Full 1080p Latino

540 vistas
1 estrella2 estrellas3 estrellas4 estrellas5 estrellas (1 votos, promedio: 5,00 de 5)
Cargando…

Información de Cuando ellas quieren (2018) Full 1080p Latino

Datos de la película

  • Calidad: Full 1080p
  • Audio: Español Latino AC3 5.1 BLURAY - Ingles DTS 5.1 BLURAY
  • Subtitulos: Español Latino PGS - Ingles PGS
  • Resolución: 1920x1080p
  • Formato: MKV
  • Codec: H.264
  • Encoder: Dracarys
  • Mediainfo: Clic para Mostrar Datos Ver
  • Format                                   : Matroska
    Format version                           : Version 4 / Version 2
    File size                                : 3.62 GiB
    Duration                                 : 1 h 43 min
    Overall bit rate                         : 4 995 kb/s
    Movie name                               : CinemaniaHDD.net
    Encoded date                             : UTC 2018-08-29 04:38:03 / UTC 2018-08-21T03:46:50Z
    Writing application                      : mkvmerge v15.0.0 ('Duel with the Devil') 64-bit
    Writing library                          : libebml v1.3.5 + libmatroska v1.4.5 / Lavf57.7.2

    Video
    ID                                       : 1
    Format                                   : AVC
    Format/Info                              : Advanced Video Codec
    Format profile                           : High@L4.1
    Format settings                          : CABAC / 4 Ref Frames
    Format settings, CABAC                   : Yes
    Format settings, RefFrames               : 4 frames
    Codec ID                                 : V_MPEG4/ISO/AVC
    Duration                                 : 1 h 43 min
    Bit rate                                 : 2 747 kb/s
    Width                                    : 1 920 pixels
    Height                                   : 1 080 pixels
    Display aspect ratio                     : 16:9
    Frame rate mode                          : Constant
    Frame rate                               : 23.976 (24000/1001) FPS
    Color space                              : YUV
    Chroma subsampling                       : 4:2:0
    Bit depth                                : 8 bits
    Scan type                                : Progressive
    Bits/(Pixel*Frame)                       : 0.055
    Stream size                              : 1.99 GiB (55%)
    Title                                    : Cuando ellas quieren (2018) Full 1080p Latino
    Writing library                          : x264 core 148 r2708 86b7198
    Encoding settings                        : cabac=1 / ref=4 / deblock=1:0:0 / analyse=0x3:0x133 / me=esa / subme=10 / psy=1 / psy_rd=1.00:0.00 / mixed_ref=1 / me_range=24 / chroma_me=1 / trellis=2 / 8x8dct=1 / cqm=0 / deadzone=21,11 / fast_pskip=1 / chroma_qp_offset=-2 / threads=34 / lookahead_threads=5 / sliced_threads=0 / nr=0 / decimate=1 / interlaced=0 / bluray_compat=0 / constrained_intra=0 / bframes=8 / b_pyramid=2 / b_adapt=2 / b_bias=0 / direct=3 / weightb=1 / open_gop=0 / weightp=2 / keyint=240 / keyint_min=24 / scenecut=40 / intra_refresh=0 / rc_lookahead=60 / rc=crf / mbtree=1 / crf=20.0 / qcomp=0.60 / qpmin=0 / qpmax=69 / qpstep=4 / vbv_maxrate=62500 / vbv_bufsize=78125 / crf_max=0.0 / nal_hrd=none / filler=0 / ip_ratio=1.40 / aq=1:1.00
    Language                                 : English
    Default                                  : Yes
    Forced                                   : No
    Color range                              : Limited
    Color primaries                          : BT.709
    Transfer characteristics                 : BT.709
    Matrix coefficients                      : BT.709
    Statistics Tags Issue                    : mkvmerge v15.0.0 ('Duel with the Devil') 64-bit 2018-08-29 04:38:03 / mkvmerge v15.0.0 ('Duel with the Devil') 64-bit 2018-08-29 04:38:03 / UTC 2018-08-21T03:46:50Z
    FromStats_BitRate                        : 2783618
    FromStats_Duration                       : 01:43:45.219000000
    FromStats_FrameCount                     : 149256
    FromStats_StreamSize                     : 2166079612

    Audio #1
    ID                                       : 2
    Format                                   : AC-3
    Format/Info                              : Audio Coding 3
    Format settings, Endianness              : Big
    Codec ID                                 : A_AC3
    Duration                                 : 1 h 43 min
    Bit rate mode                            : Constant
    Bit rate                                 : 640 kb/s
    Channel(s)                               : 6 channels
    Channel positions                        : Front: L C R, Side: L R, LFE
    Sampling rate                            : 48.0 kHz
    Frame rate                               : 31.250 FPS (1536 SPF)
    Bit depth                                : 16 bits
    Compression mode                         : Lossy
    Stream size                              : 475 MiB (13%)
    Language                                 : Spanish
    Service kind                             : Complete Main
    Default                                  : Yes
    Forced                                   : No
    Statistics Tags Issue                    : mkvmerge v15.0.0 ('Duel with the Devil') 64-bit 2018-08-29 04:38:03 / mkvmerge v15.0.0 ('Duel with the Devil') 64-bit 2018-08-29 04:38:03 / UTC 2018-08-21T03:46:50Z
    FromStats_BitRate                        : 640000
    FromStats_Duration                       : 01:43:45.248000000
    FromStats_FrameCount                     : 194539
    FromStats_StreamSize                     : 498019840

    Audio #2
    ID                                       : 3
    Format                                   : DTS
    Format/Info                              : Digital Theater Systems
    Mode                                     : 16
    Format settings, Endianness              : Big
    Codec ID                                 : A_DTS
    Duration                                 : 1 h 43 min
    Bit rate mode                            : Constant
    Bit rate                                 : 1 509 kb/s
    Channel(s)                               : 6 channels
    Channel positions                        : Front: L C R, Side: L R, LFE
    Sampling rate                            : 48.0 kHz
    Frame rate                               : 93.750 FPS (512 SPF)
    Bit depth                                : 24 bits
    Compression mode                         : Lossy
    Stream size                              : 1.09 GiB (30%)
    Language                                 : English
    Default                                  : No
    Forced                                   : No
    Statistics Tags Issue                    : mkvmerge v15.0.0 ('Duel with the Devil') 64-bit 2018-08-29 04:38:03 / mkvmerge v15.0.0 ('Duel with the Devil') 64-bit 2018-08-29 04:38:03 / UTC 2018-08-21T03:46:50Z
    FromStats_BitRate                        : 1509000
    FromStats_Duration                       : 01:43:45.216000000
    FromStats_FrameCount                     : 583614
    FromStats_StreamSize                     : 1174231368

    Text #1
    ID                                       : 4
    Format                                   : PGS
    Muxing mode                              : zlib
    Codec ID                                 : S_HDMV/PGS
    Codec ID/Info                            : Picture based subtitle format used on BDs/HD-DVDs
    Language                                 : English
    Default                                  : No
    Forced                                   : No
    Statistics Tags Issue                    : mkvmerge v15.0.0 ('Duel with the Devil') 64-bit 2018-08-29 04:38:03 / mkvmerge v15.0.0 ('Duel with the Devil') 64-bit 2018-08-29 04:38:03 / UTC 2018-08-21T03:46:50Z
    FromStats_BitRate                        : 58226
    FromStats_Duration                       : 01:36:30.410000000
    FromStats_FrameCount                     : 3532
    FromStats_StreamSize                     : 42144221

    Text #2
    ID                                       : 5
    Format                                   : PGS
    Muxing mode                              : zlib
    Codec ID                                 : S_HDMV/PGS
    Codec ID/Info                            : Picture based subtitle format used on BDs/HD-DVDs
    Language                                 : Spanish
    Default                                  : No
    Forced                                   : No
    Statistics Tags Issue                    : mkvmerge v15.0.0 ('Duel with the Devil') 64-bit 2018-08-29 04:38:03 / mkvmerge v15.0.0 ('Duel with the Devil') 64-bit 2018-08-29 04:38:03 / UTC 2018-08-21T03:46:50Z
    FromStats_BitRate                        : 57376
    FromStats_Duration                       : 01:36:30.410000000
    FromStats_FrameCount                     : 3592
    FromStats_StreamSize                     : 41529193

    Text #3
    ID                                       : 6
    Format                                   : PGS
    Muxing mode                              : zlib
    Codec ID                                 : S_HDMV/PGS
    Codec ID/Info                            : Picture based subtitle format used on BDs/HD-DVDs
    Title                                    : Forzados
    Language                                 : Spanish
    Default                                  : Yes
    Forced                                   : Yes
    Statistics Tags Issue                    : mkvmerge v15.0.0 ('Duel with the Devil') 64-bit 2018-08-29 04:38:03 / mkvmerge v15.0.0 ('Duel with the Devil') 64-bit 2018-08-29 04:38:03 / UTC 2018-08-21T03:46:50Z
    FromStats_BitRate                        : 1057
    FromStats_Duration                       : 01:36:12.600000000
    FromStats_FrameCount                     : 60
    FromStats_StreamSize                     : 763380

    Menu
    00:00:00.000                             : :Chapter 1
    00:09:32.489                             : :Chapter 2
    00:17:58.494                             : :Chapter 3
    00:28:37.174                             : :Chapter 4
    00:37:45.430                             : :Chapter 5
    00:46:38.629                             : :Chapter 6
    00:53:34.461                             : :Chapter 7
    01:02:36.586                             : :Chapter 8
    01:13:06.757                             : :Chapter 9
    01:21:36.183                             : :Chapter 10
    01:31:12.634                             : :Chapter 11
    01:37:14.662                             : :Chapter 12

  • Peso: 3.62 GiB

Sinopsis

Cuatro grandes amigas han cambiado sus vidas para siempre después de leer “50 sombras de Grey” en su club de lectura mensual.

Ficha técnica

Video trailer de la película

Enlaces de descarga

Rip de Bluray

Descargar Cuando ellas quieren (2018) Full 1080p Latino




Aportes de DPeliculasHDmega la pass es:dpeliculashdmega.org Aportes de CinemaniaHD la pass es:cinemaniahdd.com

Películas relacionadas

  • Godzilla (2014) 1080p Latino

    2014
    Godzilla (2014) 1080p Latino

    0.0 2h 3m 2014

    Descargar Godzilla (2014) 1080p Latino, Mega, Google Drive, Torrent. Gareth Edwards dirige este "reboot",...

    Director: Jessica Clothier

    Género: Acción

    Actores: Yuki Morita

  • Godzilla (2014) Full 1080p Latino

    2014
    Godzilla (2014) Full 1080p Latino

    4.2 2h 3m 2014

    Descargar Godzilla (2014) Full 1080p Latino, Mega, Google Drive, Torrent. Gareth Edwards dirige este...

    Director: Jessica Clothier

    Género: Acción

    Actores: Yuki Morita

  • Un pequeño favor (2018) Full 1080p Latino

    2018
    Un pequeño favor (2018) Full 1080p Latino

    5.0 1h 57m 2018

    Descargar Un pequeño favor (2018) Full 1080p Latino, Mega, Google Drive, Torrent. Stephanie es una joven...

    Director: Paul Feig

    Género: Crimen

    Actores: Zach Smadu

Comentarios 0