×

¿Problemas para descargar con Mozilla, EDGE? Deshabilita la opción "Abrir vinculos en una pestaña nueva" tal como lo muestra ésta imagen.

Cuando acecha la maldad (2023) REMUX 1080p Latino

37 vistas

Información de Cuando acecha la maldad (2023) REMUX 1080p Latino

Datos de la película

  • Calidad: Full 1080p
  • Audio: Se especifica abajo de la Sinopsis
  • Subtitulos: No
  • Resolución: 1920x1080p
  • Formato: MKV
  • Codec: H.264
  • Encoder: Melkor
  • Mediainfo: Clic para Mostrar Datos Ver
  • Cuando Acecha La Maldad (2023) REMUX 1080p Latino.mkv
    Format                      : Matroska
    Format version              : Version 4
    File size                   : 21.7 GiB
    Duration                    : 1 h 39 min
    Overall bit rate mode       : Variable
    Overall bit rate            : 31.1 Mb/s
    Movie name                  : Cuando Acecha La Maldad (2023) CinemaniaHDD.Net
    Encoded date                : UTC 2024-03-30 22:33:00
    Writing application         : mkvmerge v56.1.0 ('My Friend') 64-bit
    Writing library             : libebml v1.4.2 + libmatroska v1.6.4
    Attachments                 : CINEMANIAHD.png

    Video
    ID                          : 1
    Format                      : AVC
    Format/Info                 : Advanced Video Codec
    Format profile              : High@L4.1
    Format settings             : CABAC / 4 Ref Frames
    Format settings, CABAC      : Yes
    Format settings, Reference  : 4 frames
    Codec ID                    : V_MPEG4/ISO/AVC
    Duration                    : 1 h 39 min
    Bit rate mode               : Variable
    Bit rate                    : 25.9 Mb/s
    Maximum bit rate            : 36.0 Mb/s
    Width                       : 1 920 pixels
    Height                      : 1 080 pixels
    Display aspect ratio        : 16:9
    Frame rate mode             : Constant
    Frame rate                  : 23.976 (24000/1001) FPS
    Color space                 : YUV
    Chroma subsampling          : 4:2:0
    Bit depth                   : 8 bits
    Scan type                   : Progressive
    Bits/(Pixel*Frame)          : 0.520
    Stream size                 : 18.0 GiB (83%)
    Title                       : REMUX HD1080p [CinemaniaHDD]
    Default                     : Yes
    Forced                      : No

    Audio #1
    ID                          : 2
    Format                      : DTS
    Format/Info                 : Digital Theater Systems
    Codec ID                    : A_DTS
    Duration                    : 1 h 39 min
    Bit rate mode               : Constant
    Bit rate                    : 1 509 kb/s
    Channel(s)                  : 6 channels
    Channel layout              : C L R Ls Rs LFE
    Sampling rate               : 48.0 kHz
    Frame rate                  : 93.750 FPS (512 SPF)
    Bit depth                   : 24 bits
    Compression mode            : Lossy
    Stream size                 : 1.05 GiB (5%)
    Title                       : Español Latino [CinemaniaHDD]
    Language                    : Spanish
    Default                     : Yes
    Forced                      : Yes

    Audio #2
    ID                          : 3
    Format                      : DTS XLL
    Format/Info                 : Digital Theater Systems
    Commercial name             : DTS-HD Master Audio
    Codec ID                    : A_DTS
    Duration                    : 1 h 39 min
    Bit rate mode               : Variable
    Bit rate                    : 3 696 kb/s
    Channel(s)                  : 6 channels
    Channel layout              : C L R Ls Rs LFE
    Sampling rate               : 48.0 kHz
    Frame rate                  : 93.750 FPS (512 SPF)
    Bit depth                   : 24 bits
    Compression mode            : Lossless
    Stream size                 : 2.57 GiB (12%)
    Title                       : Español Latino DTS-HD [CinemaniaHDD]
    Language                    : Spanish
    Default                     : No
    Forced                      : No

    Text
    ID                          : 4
    Format                      : PGS
    Muxing mode                 : zlib
    Codec ID                    : S_HDMV/PGS
    Codec ID/Info               : Picture based subtitle format used on BDs/HD-DVDs
    Duration                    : 1 h 32 min
    Bit rate                    : 18.8 kb/s
    Count of elements           : 2578
    Stream size                 : 12.4 MiB (0%)
    Title                       : Ingles-PGS [CinemaniaHDD]
    Language                    : English
    Default                     : No
    Forced                      : No

    Menu
    00:00:00.000                : Chapter 01
    00:12:12.398                : Chapter 02
    00:24:54.827                : Chapter 03
    00:39:17.272                : Chapter 04
    00:53:10.187                : Chapter 05
    01:12:19.794                : Chapter 06
    01:20:40.169                : Chapter 07
    01:35:57.085                : Chapter 08

  • Peso: 21.7 GiB

Sinopsis

Descargar Cuando acecha la maldad (2023) REMUX 1080p Latino. En una aldea remota donde dos hermanos encuentran a un hombre infectado por un demonio que está a punto de dar a luz al mal mismo. En un momento en que el exorcismo parece ser de poca utilidad para protegerse del mal, después de advertir a los vecinos de la ciudad, deciden deshacerse del hombre, pero simplemente logran ayudarlo a librar el infierno.

Español Latino DTS-HD & Core DTS 5.1 BD

Ficha técnica

Video trailer de la película

Enlaces de descarga

Rip de Bluray

Descargar Cuando acecha la maldad (2023) REMUX 1080p Latino




Aportes de DPeliculasHDmega la pass es:dpeliculashdmega.org Aportes de CinemaniaHD la pass es:cinemaniahdd.com Aportes recientes:cinemaniahdd.net
Guardado en : Remux , Suspenso , Terror

Películas relacionadas

descargar Cuando acecha la maldad (2023) REMUX 1080p Latino Full 1080p 1080p gratis, Cuando acecha la maldad (2023) REMUX 1080p Latino Full 1080p mega 1 link, Cuando acecha la maldad (2023) REMUX 1080p Latino Full 1080p pelicula completa, descargar Cuando acecha la maldad (2023) REMUX 1080p Latino Full 1080p gratis en mega.

Cuando acecha la maldad (2023) REMUX 1080p Latino pelicula full hd, Cuando acecha la maldad (2023) REMUX 1080p Latino mega latino, Cuando acecha la maldad (2023) REMUX 1080p Latino 4k latino, Cuando acecha la maldad (2023) REMUX 1080p Latino pelicula completa, Cuando acecha la maldad (2023) REMUX 1080p Latino descargar gratis, descargar Cuando acecha la maldad (2023) REMUX 1080p Latino pelicula latino, Cuando acecha la maldad (2023) REMUX 1080p Latino 1 link mega, Cuando acecha la maldad (2023) REMUX 1080p Latino 1 link google drive, Cuando acecha la maldad (2023) REMUX 1080p Latino hd 1080p latino.
Comentarios 0