×

¿Problemas para descargar con Mozilla, EDGE? Deshabilita la opción "Abrir vinculos en una pestaña nueva" tal como lo muestra ésta imagen.

Cuando acecha la maldad (2023) PLACEBO Full HD 1080p Latino

47 vistas

Información de Cuando acecha la maldad (2023) PLACEBO Full HD 1080p Latino

Datos de la película

  • Calidad: Full 1080p
  • Audio: Español Latino DTS 5.1 BLURAY
  • Subtitulos: No
  • Resolución: 1920x1080p
  • Formato: MKV
  • Codec: H.264
  • Encoder: Melkor
  • Mediainfo: Clic para Mostrar Datos Ver
  • Cuando Acecha La Maldad (2023) PLACEBO 1080p Latino.mkv
    Format                      : Matroska
    Format version              : Version 4
    File size                   : 3.69 GiB
    Duration                    : 1 h 39 min
    Overall bit rate            : 5 294 kb/s
    Movie name                  : Cuando Acecha La Maldad (2023) CinemaniaHDD.Net
    Encoded date                : UTC 2024-03-30 22:38:39
    Writing application         : mkvmerge v56.1.0 ('My Friend') 64-bit
    Writing library             : libebml v1.4.2 + libmatroska v1.6.4
    Attachments                 : CINEMANIAHD.png

    Video
    ID                          : 1
    Format                      : AVC
    Format/Info                 : Advanced Video Codec
    Format profile              : High@L4.1
    Format settings             : CABAC / 4 Ref Frames
    Format settings, CABAC      : Yes
    Format settings, Reference  : 4 frames
    Codec ID                    : V_MPEG4/ISO/AVC
    Duration                    : 1 h 39 min
    Bit rate                    : 3 783 kb/s
    Width                       : 1 920 pixels
    Height                      : 1 080 pixels
    Display aspect ratio        : 16:9
    Frame rate mode             : Constant
    Frame rate                  : 23.976 (24000/1001) FPS
    Color space                 : YUV
    Chroma subsampling          : 4:2:0
    Bit depth                   : 8 bits
    Scan type                   : Progressive
    Bits/(Pixel*Frame)          : 0.076
    Stream size                 : 2.64 GiB (71%)
    Title                       : Full HD1080p [CinemaniaHDD]
    Writing library             : x264 core 163 r3059 b684ebe0
    Encoding settings           : cabac=1 / ref=4 / deblock=1:0:0 / analyse=0x3:0x133 / me=tesa / subme=11 / psy=1 / psy_rd=1.00:0.00 / mixed_ref=1 / me_range=24 / chroma_me=1 / trellis=2 / 8x8dct=1 / cqm=0 / deadzone=21,11 / fast_pskip=0 / chroma_qp_offset=-2 / threads=24 / lookahead_threads=6 / sliced_threads=0 / nr=0 / decimate=1 / interlaced=0 / bluray_compat=0 / constrained_intra=0 / bframes=16 / b_pyramid=2 / b_adapt=2 / b_bias=0 / direct=3 / weightb=1 / open_gop=0 / weightp=2 / keyint=240 / keyint_min=24 / scenecut=40 / intra_refresh=0 / rc_lookahead=60 / rc=crf / mbtree=1 / crf=19.0 / qcomp=0.60 / qpmin=0 / qpmax=69 / qpstep=4 / vbv_maxrate=62500 / vbv_bufsize=78125 / crf_max=0.0 / nal_hrd=none / filler=0 / ip_ratio=1.40 / aq=1:1.00
    Default                     : Yes
    Forced                      : Yes
    Color range                 : Limited
    Color primaries             : BT.709
    Transfer characteristics    : BT.709
    Matrix coefficients         : BT.709

    Audio
    ID                          : 2
    Format                      : DTS
    Format/Info                 : Digital Theater Systems
    Codec ID                    : A_DTS
    Duration                    : 1 h 39 min
    Bit rate mode               : Constant
    Bit rate                    : 1 509 kb/s
    Channel(s)                  : 6 channels
    Channel layout              : C L R Ls Rs LFE
    Sampling rate               : 48.0 kHz
    Frame rate                  : 93.750 FPS (512 SPF)
    Bit depth                   : 24 bits
    Compression mode            : Lossy
    Stream size                 : 1.05 GiB (28%)
    Title                       : Español Latino [CinemaniaHDD]
    Language                    : Spanish
    Default                     : Yes
    Forced                      : Yes

    Menu
    00:00:00.000                : Chapter 01
    00:12:12.398                : Chapter 02
    00:24:54.827                : Chapter 03
    00:39:17.272                : Chapter 04
    00:53:10.187                : Chapter 05
    01:12:19.794                : Chapter 06
    01:20:40.169                : Chapter 07
    01:35:57.085                : Chapter 08

  • Peso: 3.69 GiB

Sinopsis

Descargar Cuando acecha la maldad (2023) PLACEBO Full HD 1080p Latino. En una aldea remota donde dos hermanos encuentran a un hombre infectado por un demonio que está a punto de dar a luz al mal mismo. En un momento en que el exorcismo parece ser de poca utilidad para protegerse del mal, después de advertir a los vecinos de la ciudad, deciden deshacerse del hombre, pero simplemente logran ayudarlo a librar el infierno.

Ficha técnica

Video trailer de la película

Enlaces de descarga

Rip de Bluray

Descargar Cuando acecha la maldad (2023) PLACEBO Full HD 1080p Latino




Aportes de DPeliculasHDmega la pass es:dpeliculashdmega.org Aportes de CinemaniaHD la pass es:cinemaniahdd.com Aportes recientes:cinemaniahdd.net

Películas relacionadas

  • El Fin de Los Tiempos (2008) Full HD 1080p Latino-CMHDD

    El Fin de Los Tiempos (2008) Full HD 1080p Latino-CMHDD

    2008
    El Fin de Los Tiempos (2008) Full HD 1080p Latino-CMHDD

    1h 30m 2008

    Descargar El Fin de Los Tiempos (2008) Full HD 1080p Latino-CMHDD. En unos minutos, en las principales...

    Director: Mary Cybulski

    Género: Ciencia ficción

    Actores: Zooey Deschanel

  • El Fin de Los Tiempos (2008) REMUX 1080p Latino-CMHDD

    El Fin de Los Tiempos (2008) REMUX 1080p Latino-CMHDD

    2008
    El Fin de Los Tiempos (2008) REMUX 1080p Latino-CMHDD

    1h 30m 2008

    Descargar El Fin de Los Tiempos (2008) REMUX 1080p Latino-CMHDD. En unos minutos, en las principales...

    Director: M. Night Shyamalan

    Género: Ciencia ficción

    Actores: Zooey Deschanel

  • Victor Frankenstein (2015) REMUX 1080p Latino-CMHDD

    Victor Frankenstein (2015) REMUX 1080p Latino-CMHDD

    2015
    Victor Frankenstein (2015) REMUX 1080p Latino-CMHDD

    1h 50m 2015

    Descargar Victor Frankenstein (2015) REMUX 1080p Latino-CMHDD. En los ambiciosos planes del doctor para...

    Director: Toby Ford

    Género: Ciencia ficción

    Actores: Will Keen

  • Loco Por Ella (2010) Full HD 1080p Latino-CMHDD

    Loco Por Ella (2010) Full HD 1080p Latino-CMHDD

    2010
    Loco Por Ella (2010) Full HD 1080p Latino-CMHDD

    1 h 41 min 2010

    Descargar Loco Por Ella (2010) REMUX 1080p Latino-CMHDD. Cuando Kassie (Jennifer Aniston) cumple los...

    Director: Will Speck

    Género: Actualizadas

    Actores: Will Swenson

descargar Cuando acecha la maldad (2023) PLACEBO Full HD 1080p Latino Full 1080p 1080p gratis, Cuando acecha la maldad (2023) PLACEBO Full HD 1080p Latino Full 1080p mega 1 link, Cuando acecha la maldad (2023) PLACEBO Full HD 1080p Latino Full 1080p pelicula completa, descargar Cuando acecha la maldad (2023) PLACEBO Full HD 1080p Latino Full 1080p gratis en mega.

Cuando acecha la maldad (2023) PLACEBO Full HD 1080p Latino pelicula full hd, Cuando acecha la maldad (2023) PLACEBO Full HD 1080p Latino mega latino, Cuando acecha la maldad (2023) PLACEBO Full HD 1080p Latino 4k latino, Cuando acecha la maldad (2023) PLACEBO Full HD 1080p Latino pelicula completa, Cuando acecha la maldad (2023) PLACEBO Full HD 1080p Latino descargar gratis, descargar Cuando acecha la maldad (2023) PLACEBO Full HD 1080p Latino pelicula latino, Cuando acecha la maldad (2023) PLACEBO Full HD 1080p Latino 1 link mega, Cuando acecha la maldad (2023) PLACEBO Full HD 1080p Latino 1 link google drive, Cuando acecha la maldad (2023) PLACEBO Full HD 1080p Latino hd 1080p latino.
Comentarios 0