×

¿Problemas para descargar con Mozilla, EDGE? Deshabilita la opción "Abrir vinculos en una pestaña nueva" tal como lo muestra ésta imagen.

Cuando acecha la maldad (2023) HD 1080p Latino

39 vistas

Información de Cuando acecha la maldad (2023) HD 1080p Latino

Datos de la película

  • Calidad: 1080p
  • Audio: Español Latino AC3 5.1 BLURAY
  • Subtitulos: No
  • Resolución: 1920x804p
  • Formato: MKV
  • Codec: H.264
  • Encoder: Melkor
  • Mediainfo: Clic para Mostrar Datos Ver
  • Cuando Acecha La Maldad (2023) HD 1080p Latino.mkv
    Format                      : Matroska
    Format version              : Version 4
    File size                   : 2.73 GiB
    Duration                    : 1 h 39 min
    Overall bit rate            : 3 926 kb/s
    Movie name                  : Cuando Acecha La Maldad (2023) CinemaniaHDD.Net
    Encoded date                : UTC 2024-03-30 22:36:56
    Writing application         : mkvmerge v56.1.0 ('My Friend') 64-bit
    Writing library             : libebml v1.4.2 + libmatroska v1.6.4
    Attachments                 : CINEMANIAHD.png

    Video
    ID                          : 1
    Format                      : AVC
    Format/Info                 : Advanced Video Codec
    Format profile              : High@L4.1
    Format settings             : CABAC / 5 Ref Frames
    Format settings, CABAC      : Yes
    Format settings, Reference  : 5 frames
    Codec ID                    : V_MPEG4/ISO/AVC
    Duration                    : 1 h 39 min
    Bit rate                    : 3 500 kb/s
    Width                       : 1 920 pixels
    Height                      : 804 pixels
    Display aspect ratio        : 2.40:1
    Frame rate mode             : Constant
    Frame rate                  : 23.976 (24000/1001) FPS
    Color space                 : YUV
    Chroma subsampling          : 4:2:0
    Bit depth                   : 8 bits
    Scan type                   : Progressive
    Bits/(Pixel*Frame)          : 0.095
    Stream size                 : 2.42 GiB (89%)
    Title                       : HD1080p [CinemaniaHDD]
    Writing library             : x264 core 163 r3059 b684ebe0
    Encoding settings           : cabac=1 / ref=5 / deblock=1:-1:-1 / analyse=0x3:0x133 / me=umh / subme=9 / psy=1 / psy_rd=1.00:0.15 / mixed_ref=1 / me_range=16 / chroma_me=1 / trellis=2 / 8x8dct=1 / cqm=0 / deadzone=21,11 / fast_pskip=1 / chroma_qp_offset=-3 / threads=24 / lookahead_threads=2 / sliced_threads=0 / nr=0 / decimate=1 / interlaced=0 / bluray_compat=0 / constrained_intra=0 / bframes=3 / b_pyramid=2 / b_adapt=2 / b_bias=0 / direct=3 / weightb=1 / open_gop=0 / weightp=2 / keyint=240 / keyint_min=24 / scenecut=40 / intra_refresh=0 / rc_lookahead=60 / rc=abr / mbtree=1 / bitrate=3500 / ratetol=1.0 / qcomp=0.60 / qpmin=0 / qpmax=69 / qpstep=4 / vbv_maxrate=62500 / vbv_bufsize=78125 / nal_hrd=none / filler=0 / ip_ratio=1.40 / aq=1:1.00
    Default                     : Yes
    Forced                      : Yes
    Color range                 : Limited
    Color primaries             : BT.709
    Transfer characteristics    : BT.709
    Matrix coefficients         : BT.709

    Audio
    ID                          : 2
    Format                      : AC-3
    Format/Info                 : Audio Coding 3
    Commercial name             : Dolby Digital
    Codec ID                    : A_AC3
    Duration                    : 1 h 39 min
    Bit rate mode               : Constant
    Bit rate                    : 448 kb/s
    Channel(s)                  : 6 channels
    Channel layout              : L R C LFE Ls Rs
    Sampling rate               : 48.0 kHz
    Frame rate                  : 31.250 FPS (1536 SPF)
    Compression mode            : Lossy
    Delay relative to video     : -5 ms
    Stream size                 : 319 MiB (11%)
    Title                       : Español Latino [CinemaniaHDD]
    Language                    : Spanish
    Service kind                : Complete Main
    Default                     : Yes
    Forced                      : Yes

    Menu
    00:00:00.000                : :Chapter 1
    00:12:12.398                : :Chapter 2
    00:24:54.827                : :Chapter 3
    00:39:17.272                : :Chapter 4
    00:53:10.187                : :Chapter 5
    01:12:19.794                : :Chapter 6
    01:20:40.169                : :Chapter 7
    01:35:57.210                : :Chapter 8

  • Peso: 2.73 GiB

Sinopsis

Descargar Cuando acecha la maldad (2023) HD 1080p Latino. En una aldea remota donde dos hermanos encuentran a un hombre infectado por un demonio que está a punto de dar a luz al mal mismo. En un momento en que el exorcismo parece ser de poca utilidad para protegerse del mal, después de advertir a los vecinos de la ciudad, deciden deshacerse del hombre, pero simplemente logran ayudarlo a librar el infierno.

Ficha técnica

Video trailer de la película

Enlaces de descarga

Rip de Bluray

Descargar Cuando acecha la maldad (2023) HD 1080p Latino




Aportes de DPeliculasHDmega la pass es:dpeliculashdmega.org Aportes de CinemaniaHD la pass es:cinemaniahdd.com Aportes recientes:cinemaniahdd.net
Guardado en : HD 1080p , Suspenso , Terror

Películas relacionadas

descargar Cuando acecha la maldad (2023) HD 1080p Latino 1080p 1080p gratis, Cuando acecha la maldad (2023) HD 1080p Latino 1080p mega 1 link, Cuando acecha la maldad (2023) HD 1080p Latino 1080p pelicula completa, descargar Cuando acecha la maldad (2023) HD 1080p Latino 1080p gratis en mega.

Cuando acecha la maldad (2023) HD 1080p Latino pelicula full hd, Cuando acecha la maldad (2023) HD 1080p Latino mega latino, Cuando acecha la maldad (2023) HD 1080p Latino 4k latino, Cuando acecha la maldad (2023) HD 1080p Latino pelicula completa, Cuando acecha la maldad (2023) HD 1080p Latino descargar gratis, descargar Cuando acecha la maldad (2023) HD 1080p Latino pelicula latino, Cuando acecha la maldad (2023) HD 1080p Latino 1 link mega, Cuando acecha la maldad (2023) HD 1080p Latino 1 link google drive, Cuando acecha la maldad (2023) HD 1080p Latino hd 1080p latino.
Comentarios 0