×

¿Problemas para descargar con Mozilla, EDGE? Deshabilita la opción "Abrir vinculos en una pestaña nueva" tal como lo muestra ésta imagen.

Cruzando la línea (2021) REMUX 1080p Latino

136 vistas

Información de Cruzando la línea (2021) REMUX 1080p Latino

Datos de la película

  • Calidad: Full 1080p
  • Audio: Se especifica abajo de la Sinopsis
  • Subtitulos: Español Latino PGS - Ingles PGS
  • Resolución: 1920x1080p
  • Formato: MKV
  • Codec: H.264
  • Encoder: Melkor
  • Mediainfo: Clic para Mostrar Datos Ver
  • Cruzando La Linea (2021) REMUX 1080p Latino.mkv
    Format                      : Matroska
    Format version              : Version 4
    File size                   : 20.3 GiB
    Duration                    : 1 h 31 min
    Overall bit rate mode       : Variable
    Overall bit rate            : 31.8 Mb/s
    Movie name                  : The Gateway (2021) CinemaniaHDD.Net
    Encoded date                : UTC 2022-08-10 05:13:58
    Writing application         : mkvmerge v56.1.0 ('My Friend') 64-bit
    Writing library             : libebml v1.4.2 + libmatroska v1.6.4
    Attachments                 : CINEMANIAHD.png

    Video
    ID                          : 1
    ID in the original source m : 4113 (0x1011)
    Format                      : AVC
    Format/Info                 : Advanced Video Codec
    Format profile              : High@L4.1
    Format settings             : CABAC / 4 Ref Frames
    Format settings, CABAC      : Yes
    Format settings, Reference  : 4 frames
    Codec ID                    : V_MPEG4/ISO/AVC
    Duration                    : 1 h 31 min
    Bit rate mode               : Variable
    Bit rate                    : 27.1 Mb/s
    Maximum bit rate            : 37.0 Mb/s
    Width                       : 1 920 pixels
    Height                      : 1 080 pixels
    Display aspect ratio        : 16:9
    Frame rate mode             : Constant
    Frame rate                  : 23.976 (24000/1001) FPS
    Color space                 : YUV
    Chroma subsampling          : 4:2:0
    Bit depth                   : 8 bits
    Scan type                   : Progressive
    Bits/(Pixel*Frame)          : 0.546
    Stream size                 : 17.3 GiB (85%)
    Title                       : REMUX HD1080p [CinemaniaHDD]
    Default                     : Yes
    Forced                      : Yes
    Original source medium      : Blu-ray

    Audio #1
    ID                          : 2
    Format                      : AC-3
    Format/Info                 : Audio Coding 3
    Commercial name             : Dolby Digital
    Codec ID                    : A_AC3
    Duration                    : 1 h 31 min
    Bit rate mode               : Constant
    Bit rate                    : 640 kb/s
    Channel(s)                  : 6 channels
    Channel layout              : L R C LFE Ls Rs
    Sampling rate               : 48.0 kHz
    Frame rate                  : 31.250 FPS (1536 SPF)
    Compression mode            : Lossy
    Stream size                 : 418 MiB (2%)
    Title                       : Español Latino AC3 [CinemaniaHDD]
    Language                    : Spanish
    Service kind                : Complete Main
    Default                     : Yes
    Forced                      : Yes

    Audio #2
    ID                          : 3
    Format                      : E-AC-3
    Format/Info                 : Enhanced AC-3
    Commercial name             : Dolby Digital Plus
    Codec ID                    : A_EAC3
    Duration                    : 1 h 30 min
    Bit rate mode               : Constant
    Bit rate                    : 640 kb/s
    Channel(s)                  : 6 channels
    Channel layout              : L R C LFE Ls Rs
    Sampling rate               : 48.0 kHz
    Frame rate                  : 31.250 FPS (1536 SPF)
    Compression mode            : Lossy
    Delay relative to video     : 31 s 270 ms
    Stream size                 : 416 MiB (2%)
    Title                       : Español Latino EAC3 [CinemaniaHDD]
    Language                    : Spanish
    Service kind                : Complete Main
    Default                     : No
    Forced                      : No

    Audio #3
    ID                          : 4
    ID in the original source m : 4352 (0x1100)
    Format                      : DTS XLL
    Format/Info                 : Digital Theater Systems
    Commercial name             : DTS-HD Master Audio
    Codec ID                    : A_DTS
    Duration                    : 1 h 31 min
    Bit rate mode               : Variable
    Bit rate                    : 3 349 kb/s
    Channel(s)                  : 6 channels
    Channel layout              : C L R Ls Rs LFE
    Sampling rate               : 48.0 kHz
    Frame rate                  : 93.750 FPS (512 SPF)
    Bit depth                   : 24 bits
    Compression mode            : Lossless
    Stream size                 : 2.13 GiB (11%)
    Title                       : Ingles [CinemaniaHDD]
    Language                    : English
    Default                     : No
    Forced                      : No
    Original source medium      : Blu-ray

    Text #1
    ID                          : 5
    ID in the original source m : 4609 (0x1201)
    Format                      : PGS
    Muxing mode                 : zlib
    Codec ID                    : S_HDMV/PGS
    Codec ID/Info               : Picture based subtitle format used on BDs/HD-DVDs
    Duration                    : 1 h 29 min
    Bit rate                    : 30.7 kb/s
    Count of elements           : 2084
    Stream size                 : 19.7 MiB (0%)
    Title                       : Español-PGS [CinemaniaHDD]
    Language                    : Spanish
    Default                     : No
    Forced                      : No
    Original source medium      : Blu-ray

    Text #2
    ID                          : 6
    ID in the original source m : 4608 (0x1200)
    Format                      : PGS
    Muxing mode                 : zlib
    Codec ID                    : S_HDMV/PGS
    Codec ID/Info               : Picture based subtitle format used on BDs/HD-DVDs
    Duration                    : 1 h 27 min
    Bit rate                    : 39.4 kb/s
    Count of elements           : 2456
    Stream size                 : 24.7 MiB (0%)
    Title                       : Ingles-PGS [CinemaniaHDD]
    Language                    : English
    Default                     : No
    Forced                      : No
    Original source medium      : Blu-ray

    Text #3
    ID                          : 7
    Format                      : UTF-8
    Codec ID                    : S_TEXT/UTF8
    Codec ID/Info               : UTF-8 Plain Text
    Duration                    : 36 min 37 s
    Bit rate                    : 0 b/s
    Count of elements           : 4
    Stream size                 : 101 Bytes (0%)
    Title                       : Forzados-SRT [CinemaniaHDD]
    Language                    : Spanish
    Default                     : Yes
    Forced                      : Yes

    Text #4
    ID                          : 8
    Format                      : UTF-8
    Codec ID                    : S_TEXT/UTF8
    Codec ID/Info               : UTF-8 Plain Text
    Duration                    : 1 h 27 min
    Bit rate                    : 54 b/s
    Count of elements           : 1065
    Stream size                 : 35.1 KiB (0%)
    Title                       : Español-SRT [CinemaniaHDD]
    Language                    : Spanish
    Default                     : No
    Forced                      : No

    Menu
    00:00:00.000                : Chapter 01
    00:05:06.806                : Chapter 02
    00:10:32.548                : Chapter 03
    00:15:58.290                : Chapter 04
    00:21:08.350                : Chapter 05
    00:26:30.672                : Chapter 06
    00:32:06.716                : Chapter 07
    00:38:28.848                : Chapter 08
    00:44:24.203                : Chapter 09
    00:49:47.859                : Chapter 10
    00:55:15.645                : Chapter 11
    01:01:26.140                : Chapter 12
    01:06:26.607                : Chapter 13
    01:12:10.909                : Chapter 14
    01:20:53.932                : Chapter 15
    01:24:00.326                : Chapter 16

  • Peso: 20.3 GiB

Sinopsis

Descargar Cruzando la línea (2021) REMUX 1080p Latino. Un trabajador social asignado al cuidado de la hija de una madre soltera interviene cuando el padre regresa de la cárcel y los atrae a una vida delictiva.

Español Latino EAC3 & AC3 5.1 Web – Ingles DTS-HD 5.1 BD

Ficha técnica

Video trailer de la película

Enlaces de descarga

Rip de Bluray

Descargar Cruzando la línea (2021) REMUX 1080p Latino




Aportes de DPeliculasHDmega la pass es:dpeliculashdmega.org Aportes de CinemaniaHD la pass es:cinemaniahdd.com
Guardado en : Acción , Crimen , Drama , Remux

Películas relacionadas

  • Ajin: Semi-Humano (2017) AMZN WEB-DL 1080p Latino

    Ajin: Semi-Humano (2017) AMZN WEB-DL 1080p Latino

    2017
    Ajin: Semi-Humano (2017) AMZN WEB-DL 1080p Latino

    1h 50m 2017

    Descargar Ajin: Semi-Humano (2017) AMZN WEB-DL 1080p Latino. En el manga original, aparece una persona...

    Director: Toru Yamamoto

    Género: Acción

    Actores: Yuki Yamada

  • Ajin: Semi-Humano (2017) REMUX 1080p Latino

    Ajin: Semi-Humano (2017) REMUX 1080p Latino

    2017
    Ajin: Semi-Humano (2017) REMUX 1080p Latino

    1h 50m 2017

    Descargar Ajin: Semi-Humano (2017) REMUX 1080p Latino. En el manga original, aparece una persona inmortal...

    Director: Toru Yamamoto

    Género: Acción

    Actores: Yuki Yamada

  • Zola (2020) HD 1080p Latino

    Zola (2020) HD 1080p Latino

    2020
    Zola (2020) HD 1080p Latino

    1h 26m 2020

    Descargar Zola (2020) HD 1080p Latino. Una camarera accede a acompañar a una bailarina exótica, su...

    Director: Sheri Davani

    Género: Comedia

    Actores: Ts Madison

descargar Cruzando la línea (2021) REMUX 1080p Latino Full 1080p 1080p gratis, Cruzando la línea (2021) REMUX 1080p Latino Full 1080p mega 1 link, Cruzando la línea (2021) REMUX 1080p Latino Full 1080p pelicula completa, descargar Cruzando la línea (2021) REMUX 1080p Latino Full 1080p gratis en mega.

Cruzando la línea (2021) REMUX 1080p Latino pelicula full hd, Cruzando la línea (2021) REMUX 1080p Latino mega latino, Cruzando la línea (2021) REMUX 1080p Latino 4k latino, Cruzando la línea (2021) REMUX 1080p Latino pelicula completa, Cruzando la línea (2021) REMUX 1080p Latino descargar gratis, descargar Cruzando la línea (2021) REMUX 1080p Latino pelicula latino, Cruzando la línea (2021) REMUX 1080p Latino 1 link mega, Cruzando la línea (2021) REMUX 1080p Latino 1 link google drive, Cruzando la línea (2021) REMUX 1080p Latino hd 1080p latino.
Comentarios 0