×

¿Problemas para descargar con Mozilla, EDGE? Deshabilita la opción "Abrir vinculos en una pestaña nueva" tal como lo muestra ésta imagen.

Crush (2022) Web-DL 1080p Latino

386 vistas

Información de Crush (2022) Web-DL 1080p Latino

Datos de la película

  • Calidad: WEBDL
  • Audio: Se especifica abajo de la Sinopsis
  • Subtitulos: Español Latino SRT- FORZADOS SRT
  • Resolución: 1920x1080p
  • Formato: MKV
  • Codec: H.264
  • Encoder: Melkor
  • Mediainfo: Clic para Mostrar Datos Ver
  • Crush (2022) WebDL 1080p Latino.mkv
    Format                      : Matroska
    Format version              : Version 4
    File size                   : 4.78 GiB
    Duration                    : 1 h 32 min
    Overall bit rate mode       : Variable
    Overall bit rate            : 7 384 kb/s
    Movie name                  : Crush (2022) CinemaniaHDD.Net
    Encoded date                : UTC 2022-06-04 03:33:29
    Writing application         : mkvmerge v56.1.0 ('My Friend') 64-bit
    Writing library             : libebml v1.4.2 + libmatroska v1.6.4
    Attachments                 : CINEMANIAHD.png

    Video
    ID                          : 1
    Format                      : AVC
    Format/Info                 : Advanced Video Codec
    Format profile              : High@L4
    Format settings             : CABAC / 4 Ref Frames
    Format settings, CABAC      : Yes
    Format settings, Reference  : 4 frames
    Codec ID                    : V_MPEG4/ISO/AVC
    Duration                    : 1 h 32 min
    Bit rate mode               : Variable
    Bit rate                    : 6 485 kb/s
    Maximum bit rate            : 12.7 Mb/s
    Width                       : 1 920 pixels
    Height                      : 1 080 pixels
    Display aspect ratio        : 16:9
    Frame rate mode             : Constant
    Frame rate                  : 24.000 FPS
    Color space                 : YUV
    Chroma subsampling          : 4:2:0
    Bit depth                   : 8 bits
    Scan type                   : Progressive
    Bits/(Pixel*Frame)          : 0.130
    Stream size                 : 4.20 GiB (88%)
    Title                       : Web HD1080p [CinemaniaHDD]
    Default                     : Yes
    Forced                      : Yes
    Color range                 : Limited
    Color primaries             : BT.709
    Transfer characteristics    : BT.709
    Matrix coefficients         : BT.709

    Audio #1
    ID                          : 2
    Format                      : AC-3
    Format/Info                 : Audio Coding 3
    Commercial name             : Dolby Digital
    Codec ID                    : A_AC3
    Duration                    : 1 h 32 min
    Bit rate mode               : Constant
    Bit rate                    : 384 kb/s
    Channel(s)                  : 6 channels
    Channel layout              : L R C LFE Ls Rs
    Sampling rate               : 48.0 kHz
    Frame rate                  : 31.250 FPS (1536 SPF)
    Compression mode            : Lossy
    Stream size                 : 255 MiB (5%)
    Title                       : Español Latino AC3 [CinemaniaHDD]
    Language                    : Spanish
    Service kind                : Complete Main
    Default                     : Yes
    Forced                      : Yes

    Audio #2
    ID                          : 3
    Format                      : E-AC-3
    Format/Info                 : Enhanced AC-3
    Commercial name             : Dolby Digital Plus
    Codec ID                    : A_EAC3
    Duration                    : 1 h 32 min
    Bit rate mode               : Constant
    Bit rate                    : 256 kb/s
    Channel(s)                  : 6 channels
    Channel layout              : L R C LFE Ls Rs
    Sampling rate               : 48.0 kHz
    Frame rate                  : 31.250 FPS (1536 SPF)
    Compression mode            : Lossy
    Stream size                 : 170 MiB (3%)
    Title                       : Ingles [CinemaniaHDD]
    Language                    : English
    Service kind                : Complete Main
    Default                     : No
    Forced                      : No

    Audio #3
    ID                          : 4
    Format                      : E-AC-3
    Format/Info                 : Enhanced AC-3
    Commercial name             : Dolby Digital Plus
    Codec ID                    : A_EAC3
    Duration                    : 1 h 32 min
    Bit rate mode               : Constant
    Bit rate                    : 256 kb/s
    Channel(s)                  : 6 channels
    Channel layout              : L R C LFE Ls Rs
    Sampling rate               : 48.0 kHz
    Frame rate                  : 31.250 FPS (1536 SPF)
    Compression mode            : Lossy
    Stream size                 : 170 MiB (3%)
    Title                       : Español Latino EAC3 [CinemaniaHDD]
    Language                    : Spanish
    Service kind                : Complete Main
    Default                     : No
    Forced                      : No

    Text #1
    ID                          : 5
    Format                      : UTF-8
    Codec ID                    : S_TEXT/UTF8
    Codec ID/Info               : UTF-8 Plain Text
    Duration                    : 1 h 31 min
    Bit rate                    : 1 b/s
    Count of elements           : 31
    Stream size                 : 826 Bytes (0%)
    Title                       : Forzados-SRT [CinemaniaHDD]
    Language                    : Spanish
    Default                     : Yes
    Forced                      : Yes

    Text #2
    ID                          : 6
    Format                      : UTF-8
    Codec ID                    : S_TEXT/UTF8
    Codec ID/Info               : UTF-8 Plain Text
    Duration                    : 1 h 32 min
    Bit rate                    : 76 b/s
    Count of elements           : 1386
    Stream size                 : 51.3 KiB (0%)
    Title                       : Español-SRT [CinemaniaHDD]
    Language                    : Spanish
    Default                     : No
    Forced                      : No

    Text #3
    ID                          : 7
    Format                      : UTF-8
    Codec ID                    : S_TEXT/UTF8
    Codec ID/Info               : UTF-8 Plain Text
    Duration                    : 1 h 26 min
    Bit rate                    : 93 b/s
    Count of elements           : 1868
    Stream size                 : 59.4 KiB (0%)
    Title                       : Ingles-SRT [CinemaniaHDD]
    Language                    : English
    Default                     : No
    Forced                      : No

  • Peso: 4.78 GiB

Sinopsis

Descargar Crush (2022) Web-DL 1080p Latino. Una joven artista muy prometedora se ve obligada a unirse al equipo de atletismo de su instituto y aprovecha la ocasión para acercarse a la chica que le lleva gustando mucho tiempo. Sin embargo, termina enamorándose de una compañera del equipo que no esperaba y descubre cómo es el amor de verdad.ç

Español Latino EAC3 & AC3 5.1 Web – Ingles EAC3 5.1 Web

Ficha técnica

  • Titulo original: Crush
  • Fecha de lanzamiento: 29-04-2022 (United States of America)
  • Director: Sammi Cohen
  • Género: Comedia, Romance

Video trailer de la película

Enlaces de descarga

Rip de Bluray

Descargar Crush (2022) Web-DL 1080p Latino




Aportes de DPeliculasHDmega la pass es:dpeliculashdmega.org Aportes de CinemaniaHD la pass es:cinemaniahdd.com
Guardado en : Comedia , Romance

Películas relacionadas

  • Abracadabra 2 (2022) D+ WEB-DL 4K UHD HDR Latino

    Abracadabra 2 (2022) D+ WEB-DL 4K UHD HDR Latino

    2022
    Abracadabra 2 (2022) D+ WEB-DL 4K UHD HDR Latino

    1h 45m 2022

    Descargar Abracadabra 2 (2022) D+ WEB-DL 4K UHD HDR Latino. Han pasado 29 años desde que alguien encendió...

    Director: Anne Fletcher

    Género: 4K HDR

    Actores: Whitney Peak

  • Abracadabra 2 (2022) D+ WEB-DL 1080p Latino

    Abracadabra 2 (2022) D+ WEB-DL 1080p Latino

    2022
    Abracadabra 2 (2022) D+ WEB-DL 1080p Latino

    1h 45m 2022

    Descargar Abracadabra 2 (2022) D+ WEB-DL 1080p Latino. Han pasado 29 años desde que alguien encendió...

    Director: Anne Fletcher

    Género: Comedia

    Actores: Whitney Peak

  • Hot Summer Nights (2017) 4K-SDR WEB-DL 2160p Latino

    Hot Summer Nights (2017) 4K-SDR WEB-DL 2160p Latino

    2018
    Hot Summer Nights (2017) 4K-SDR WEB-DL 2160p Latino

    1h 47m 2018

    Daniel es un tímido adolescente que comienza a vender marihuana, entrando en un mundo tentador pero...

    Director: Stephen W. Moore

    Género: 4K HDR

    Actores: Zack Shires

  • Hot Summer Nights (2017) AMZN WEB-DL 1080p Latino

    Hot Summer Nights (2017) AMZN WEB-DL 1080p Latino

    2018
    Hot Summer Nights (2017) AMZN WEB-DL 1080p Latino

    1h 47m 2018

    Daniel es un tímido adolescente que comienza a vender marihuana, entrando en un mundo tentador pero...

    Director: Stephen W. Moore

    Género: Comedia

    Actores: Zack Shires

descargar Crush (2022) Web-DL 1080p Latino WEBDL 1080p gratis, Crush (2022) Web-DL 1080p Latino WEBDL mega 1 link, Crush (2022) Web-DL 1080p Latino WEBDL pelicula completa, descargar Crush (2022) Web-DL 1080p Latino WEBDL gratis en mega.

Crush (2022) Web-DL 1080p Latino pelicula full hd, Crush (2022) Web-DL 1080p Latino mega latino, Crush (2022) Web-DL 1080p Latino 4k latino, Crush (2022) Web-DL 1080p Latino pelicula completa, Crush (2022) Web-DL 1080p Latino descargar gratis, descargar Crush (2022) Web-DL 1080p Latino pelicula latino, Crush (2022) Web-DL 1080p Latino 1 link mega, Crush (2022) Web-DL 1080p Latino 1 link google drive, Crush (2022) Web-DL 1080p Latino hd 1080p latino.
Comentarios 0