×

¿Problemas para descargar con Mozilla, EDGE? Deshabilita la opción "Abrir vinculos en una pestaña nueva" tal como lo muestra ésta imagen.

Cruella (2021) REMUX 4K HDR Latino – CMHDD

179 vistas

Información de Cruella (2021) REMUX 4K HDR Latino – CMHDD

Datos de la película

  • Calidad: 4K HDR
  • Audio: Se especifica abajo de la Sinopsis
  • Subtitulos: Español Latino SRT- FORZADOS SRT
  • Resolución: 3840x2160p
  • Formato: MKV
  • Codec: H.264
  • Encoder: Dracarys
  • Mediainfo: Clic para Mostrar Datos Ver
  • Format                      : Matroska
    Format version              : Version 4
    File size                   : 51.4 GiB
    Duration                    : 2 h 13 min
    Overall bit rate mode       : Variable
    Overall bit rate            : 54.9 Mb/s
    Movie name                  : Cruella (2021) REMUX 4K HDR Latino - CMHDD
    Encoded date                : UTC 2021-08-15 19:11:38
    Writing application         : mkvmerge v56.1.0 ('My Friend') 64-bit
    Writing library             : libebml v1.4.2 + libmatroska v1.6.4
    Cover                       : Yes
    Attachments                 : cover.jpg

    Video
    ID                          : 1
    ID in the original source m : 4113 (0x1011)
    Format                      : HEVC
    Format/Info                 : High Efficiency Video Coding
    Format profile              : Main 10@L5.1@High
    HDR format                  : SMPTE ST 2086, HDR10 compatible
    Codec ID                    : V_MPEGH/ISO/HEVC
    Duration                    : 2 h 13 min
    Bit rate                    : 48.8 Mb/s
    Width                       : 3 840 pixels
    Height                      : 2 160 pixels
    Display aspect ratio        : 16:9
    Frame rate mode             : Constant
    Frame rate                  : 23.976 (24000/1001) FPS
    Color space                 : YUV
    Chroma subsampling          : 4:2:0 (Type 2)
    Bit depth                   : 10 bits
    Bits/(Pixel*Frame)          : 0.246
    Stream size                 : 45.7 GiB (89%)
    Writing library             : ATEME Titan File 3.9.6 (4.9.6.2)        
    Default                     : Yes
    Forced                      : No
    Color range                 : Limited
    Color primaries             : BT.2020
    Transfer characteristics    : PQ
    Matrix coefficients         : BT.2020 non-constant
    Mastering display color pri : Display P3
    Mastering display luminance : min: 0.0000 cd/m2, max: 1000 cd/m2
    Original source medium      : Blu-ray

    Audio #1
    ID                          : 2
    ID in the original source m : 4352 (0x1100)
    Format                      : MLP FBA 16-ch
    Format/Info                 : Meridian Lossless Packing FBA with 16-channel presentation
    Commercial name             : Dolby TrueHD with Dolby Atmos
    Codec ID                    : A_TRUEHD
    Duration                    : 2 h 13 min
    Bit rate mode               : Variable
    Bit rate                    : 4 651 kb/s
    Maximum bit rate            : 6 930 kb/s
    Channel(s)                  : 8 channels
    Channel layout              : L R C LFE Ls Rs Lb Rb
    Sampling rate               : 48.0 kHz
    Frame rate                  : 1 200.000 FPS (40 SPF)
    Compression mode            : Lossless
    Stream size                 : 4.35 GiB (8%)
    Language                    : English
    Default                     : No
    Forced                      : No
    Original source medium      : Blu-ray
    Number of dynamic objects   : 13
    Bed channel count           : 1 channel
    Bed channel configuration   : LFE

    Audio #2
    ID                          : 3
    ID in the original source m : 4352 (0x1100)
    Format                      : AC-3
    Format/Info                 : Audio Coding 3
    Commercial name             : Dolby Digital
    Codec ID                    : A_AC3
    Duration                    : 2 h 13 min
    Bit rate mode               : Constant
    Bit rate                    : 640 kb/s
    Channel(s)                  : 6 channels
    Channel layout              : L R C LFE Ls Rs
    Sampling rate               : 48.0 kHz
    Frame rate                  : 31.250 FPS (1536 SPF)
    Compression mode            : Lossy
    Stream size                 : 613 MiB (1%)
    Language                    : English
    Service kind                : Complete Main
    Default                     : No
    Forced                      : No
    Original source medium      : Blu-ray

    Audio #3
    ID                          : 4
    Format                      : E-AC-3
    Format/Info                 : Enhanced AC-3
    Commercial name             : Dolby Digital Plus
    Codec ID                    : A_EAC3
    Duration                    : 2 h 13 min
    Bit rate mode               : Constant
    Bit rate                    : 256 kb/s
    Channel(s)                  : 6 channels
    Channel layout              : L R C LFE Ls Rs
    Sampling rate               : 48.0 kHz
    Frame rate                  : 31.250 FPS (1536 SPF)
    Compression mode            : Lossy
    Stream size                 : 245 MiB (0%)
    Language                    : Spanish
    Service kind                : Complete Main
    Default                     : Yes
    Forced                      : No

    Audio #4
    ID                          : 5
    Format                      : AC-3
    Format/Info                 : Audio Coding 3
    Commercial name             : Dolby Digital
    Codec ID                    : A_AC3
    Duration                    : 2 h 13 min
    Bit rate mode               : Constant
    Bit rate                    : 448 kb/s
    Channel(s)                  : 6 channels
    Channel layout              : L R C LFE Ls Rs
    Sampling rate               : 48.0 kHz
    Frame rate                  : 31.250 FPS (1536 SPF)
    Compression mode            : Lossy
    Stream size                 : 429 MiB (1%)
    Language                    : Spanish
    Service kind                : Complete Main
    Default                     : No
    Forced                      : No

    Text #1
    ID                          : 6
    Format                      : UTF-8
    Codec ID                    : S_TEXT/UTF8
    Codec ID/Info               : UTF-8 Plain Text
    Duration                    : 1 h 50 min
    Bit rate                    : 1 b/s
    Count of elements           : 37
    Stream size                 : 1.32 KiB (0%)
    Title                       : Forzados-SRT [CinemaniaHDD]
    Language                    : Spanish
    Default                     : Yes
    Forced                      : No

    Text #2
    ID                          : 7
    Format                      : UTF-8
    Codec ID                    : S_TEXT/UTF8
    Codec ID/Info               : UTF-8 Plain Text
    Duration                    : 2 h 6 min
    Bit rate                    : 48 b/s
    Count of elements           : 1510
    Stream size                 : 45.1 KiB (0%)
    Title                       : Español-SRT [CinemaniaHDD]
    Language                    : Spanish
    Default                     : No
    Forced                      : No

    Menu
    00:00:00.000                : Chapter 01
    00:05:08.266                : Chapter 02
    00:15:21.295                : Chapter 03
    00:25:48.880                : Chapter 04
    00:30:55.103                : Chapter 05
    00:34:31.194                : Chapter 06
    00:35:42.974                : Chapter 07
    00:39:34.997                : Chapter 08
    00:42:35.594                : Chapter 09
    00:46:27.451                : Chapter 10
    00:52:29.396                : Chapter 11
    00:58:15.658                : Chapter 12
    01:04:44.088                : Chapter 13
    01:15:05.125                : Chapter 14
    01:17:16.715                : Chapter 15
    01:21:10.740                : Chapter 16
    01:23:12.737                : Chapter 17
    01:26:23.511                : Chapter 18
    01:30:43.896                : Chapter 19
    01:37:40.813                : Chapter 20
    01:47:32.404                : Chapter 21
    01:55:29.964                : Chapter 22
    02:00:19.629                : Chapter 23
    02:02:48.569                : Chapter 24
    02:04:32.214                : Chapter 25
    02:06:18.696                : Chapter 26
    02:07:25.387                : Chapter 27

  • Peso: 51.4 GiB

Sinopsis

Ambientada en el Londres de los años 70, en plena revolución del punk rock, muestra a una joven estafadora llamada Estella, una chica inteligente y creativa, decidida a convertirse en una exitosa diseñadora de moda, que se asocia con un par de ladrones para sobrevivir en las calles de la capital británica. Pero cuando su talento para la moda llama la atención de la legendaria diseñadora, la Baronesa von Hellman, Estella cambia el rumbo de su vida hasta que una serie de acontecimientos y revelaciones que harán que Estella asuma su lado malvado y se convierta en la estridente, moderna y vengativa Cruella de Vil.

 

Español Latino EAC3 & AC3 5.1 D+ – Ingles TrueHD 7.1 BD

Ficha técnica

  • Titulo original: Cruella
  • Fecha de lanzamiento: 26-05-2021 (United Kingdom, United States of America)
  • Director: Craig Gillespie
  • Género: Comedia, Crimen

Video trailer de la película

Enlaces de descarga

Rip de Bluray

Descargar Cruella (2021) REMUX 4K HDR Latino – CMHDD


Aportes de DPeliculasHDmega la pass es:dpeliculashdmega.org Aportes de CinemaniaHD la pass es:cinemaniahdd.com
Guardado en : Comedia , Crimen

Películas relacionadas

  • Borrego: Sal Del Camino (2022) HD 1080p Latino

    Borrego: Sal Del Camino (2022) HD 1080p Latino

    2022
    Borrego: Sal Del Camino (2022) HD 1080p Latino

    1h 42m 2022

    Descargar Borrego: Sal Del Camino (2022) HD 1080p Latino. Una joven botánica se traslada a un pequeño...

    Director: Jesse Harris

    Género: Crimen

    Actores: Olivia Trujillo

  • Borrego: Sal Del Camino (2022) REMUX 1080p Latino

    Borrego: Sal Del Camino (2022) REMUX 1080p Latino

    2022
    Borrego: Sal Del Camino (2022) REMUX 1080p Latino

    1h 42m 2022

    Descargar Borrego: Sal Del Camino (2022) REMUX 1080p Latino. Una joven botánica se traslada a un pequeño...

    Director: Jesse Harris

    Género: Crimen

    Actores: Olivia Trujillo

  • Tren Bala (2022) WEB-DL 4K UHD HDR Latino

    Tren Bala (2022) WEB-DL 4K UHD HDR Latino

    2022
    Tren Bala (2022) WEB-DL 4K UHD HDR Latino

    2h 7m 2022

    Descargar Tren Bala (2022) WEB-DL 4K UHD HDR Latino. El desafortunado asesino "Catarina" está decidido...

    Director: Paul Barry

    Género: 4K HDR

    Actores: Zooey Miyoshi

descargar Cruella (2021) REMUX 4K HDR Latino – CMHDD 4K HDR 1080p gratis, Cruella (2021) REMUX 4K HDR Latino – CMHDD 4K HDR mega 1 link, Cruella (2021) REMUX 4K HDR Latino – CMHDD 4K HDR pelicula completa, descargar Cruella (2021) REMUX 4K HDR Latino – CMHDD 4K HDR gratis en mega.

Cruella (2021) REMUX 4K HDR Latino – CMHDD pelicula full hd, Cruella (2021) REMUX 4K HDR Latino – CMHDD mega latino, Cruella (2021) REMUX 4K HDR Latino – CMHDD 4k latino, Cruella (2021) REMUX 4K HDR Latino – CMHDD pelicula completa, Cruella (2021) REMUX 4K HDR Latino – CMHDD descargar gratis, descargar Cruella (2021) REMUX 4K HDR Latino – CMHDD pelicula latino, Cruella (2021) REMUX 4K HDR Latino – CMHDD 1 link mega, Cruella (2021) REMUX 4K HDR Latino – CMHDD 1 link google drive, Cruella (2021) REMUX 4K HDR Latino – CMHDD hd 1080p latino.
Comentarios 0