×

¿Problemas para descargar con Mozilla, EDGE? Deshabilita la opción "Abrir vinculos en una pestaña nueva" tal como lo muestra ésta imagen.

Cruel Intentions (1999) REMUX 1080p Latino – CMHDD

192 vistas

Información de Cruel Intentions (1999) REMUX 1080p Latino – CMHDD

Datos de la película

  • Calidad: Full 1080p
  • Audio: Español Latino AC3 2.0 BLURAY - Ingles AC3 5.1 BLURAY
  • Subtitulos: Español Latino PGS
  • Resolución: 1920x1080p
  • Formato: MKV
  • Codec: H.264
  • Encoder: Dracarys
  • Mediainfo: Clic para Mostrar Datos Ver
  • Format                      : Matroska
    Format version              : Version 4
    File size                   : 18.7 GiB
    Duration                    : 1 h 37 min
    Overall bit rate mode       : Variable
    Overall bit rate            : 27.4 Mb/s
    Movie name                  : Cruel Intentions (1999) REMUX 1080p Latino - CMHDD
    Encoded date                : UTC 2021-05-15 22:49:16
    Writing application         : mkvmerge v56.1.0 ('My Friend') 64-bit
    Writing library             : libebml v1.4.2 + libmatroska v1.6.4

    Video
    ID                          : 1
    ID in the original source m : 4113 (0x1011)
    Format                      : AVC
    Format/Info                 : Advanced Video Codec
    Format profile              : High@L4.1
    Format settings             : CABAC / 2 Ref Frames
    Format settings, CABAC      : Yes
    Format settings, Reference  : 2 frames
    Codec ID                    : V_MPEG4/ISO/AVC
    Duration                    : 1 h 37 min
    Bit rate mode               : Variable
    Bit rate                    : 22.0 Mb/s
    Width                       : 1 920 pixels
    Height                      : 1 080 pixels
    Display aspect ratio        : 16:9
    Frame rate mode             : Constant
    Frame rate                  : 23.976 (24000/1001) FPS
    Color space                 : YUV
    Chroma subsampling          : 4:2:0
    Bit depth                   : 8 bits
    Scan type                   : Progressive
    Bits/(Pixel*Frame)          : 0.442
    Stream size                 : 15.0 GiB (80%)
    Default                     : Yes
    Forced                      : No
    Original source medium      : Blu-ray

    Audio #1
    ID                          : 2
    Format                      : AC-3
    Format/Info                 : Audio Coding 3
    Commercial name             : Dolby Digital
    Codec ID                    : A_AC3
    Duration                    : 1 h 37 min
    Bit rate mode               : Constant
    Bit rate                    : 384 kb/s
    Channel(s)                  : 2 channels
    Channel layout              : L R
    Sampling rate               : 48.0 kHz
    Frame rate                  : 31.250 FPS (1536 SPF)
    Compression mode            : Lossy
    Delay relative to video     : 800 ms
    Stream size                 : 268 MiB (1%)
    Language                    : Spanish
    Service kind                : Complete Main
    Default                     : Yes
    Forced                      : No

    Audio #2
    ID                          : 3
    ID in the original source m : 4352 (0x1100)
    Format                      : AC-3
    Format/Info                 : Audio Coding 3
    Commercial name             : Dolby Digital
    Codec ID                    : A_AC3
    Duration                    : 1 h 37 min
    Bit rate mode               : Constant
    Bit rate                    : 448 kb/s
    Channel(s)                  : 6 channels
    Channel layout              : L R C LFE Ls Rs
    Sampling rate               : 48.0 kHz
    Frame rate                  : 31.250 FPS (1536 SPF)
    Compression mode            : Lossy
    Stream size                 : 312 MiB (2%)
    Language                    : English
    Service kind                : Complete Main
    Default                     : No
    Forced                      : No
    Original source medium      : Blu-ray

    Audio #3
    ID                          : 4
    ID in the original source m : 4353 (0x1101)
    Format                      : PCM
    Format settings             : Little / Signed
    Codec ID                    : A_PCM/INT/LIT
    Duration                    : 1 h 37 min
    Bit rate mode               : Constant
    Bit rate                    : 4 608 kb/s
    Channel(s)                  : 6 channels
    Sampling rate               : 48.0 kHz
    Frame rate                  : 200.000 FPS (240 SPF)
    Bit depth                   : 16 bits
    Stream size                 : 3.14 GiB (17%)
    Language                    : English
    Default                     : No
    Forced                      : No
    Original source medium      : Blu-ray

    Text
    ID                          : 5
    ID in the original source m : 4633 (0x1219)
    Format                      : PGS
    Muxing mode                 : zlib
    Codec ID                    : S_HDMV/PGS
    Codec ID/Info               : Picture based subtitle format used on BDs/HD-DVDs
    Duration                    : 1 h 31 min
    Bit rate                    : 50.1 kb/s
    Count of elements           : 2388
    Stream size                 : 32.8 MiB (0%)
    Language                    : Spanish
    Default                     : No
    Forced                      : No
    Original source medium      : Blu-ray

    Menu
    00:00:00.000                : Chapter 01
    00:07:36.706                : Chapter 02
    00:14:21.861                : Chapter 03
    00:18:29.399                : Chapter 04
    00:22:33.518                : Chapter 05
    00:30:44.884                : Chapter 06
    00:34:13.092                : Chapter 07
    00:41:28.027                : Chapter 08
    00:49:54.241                : Chapter 09
    00:53:03.805                : Chapter 10
    00:58:58.535                : Chapter 11
    01:05:37.558                : Chapter 12
    01:11:13.894                : Chapter 13
    01:17:36.234                : Chapter 14
    01:23:01.601                : Chapter 15
    01:25:50.728                : Chapter 16

  • Peso: 18.7 GiB

Sinopsis

Kathryn y Sebastian son dos hermanastros que viven Manhattan, estudiantes de bachillerato en un elitista instituto de Nueva York. Cada uno es más manipulador y más perverso que el otro, así que harán una singular apuesta. Sebastian debe cortejar a una chica virgen que ha encandilado al novio de Kathryn. Si Sebastian pierde, Kathryn se quedará con su Jaguar, pero si gana… la tendrá a ella.

Ficha técnica

Video trailer de la película

Enlaces de descarga

Rip de Bluray

Descargar Cruel Intentions (1999) REMUX 1080p Latino – CMHDD


Aportes de DPeliculasHDmega la pass es:dpeliculashdmega.org Aportes de CinemaniaHD la pass es:cinemaniahdd.com
Guardado en : Drama , Romance

Películas relacionadas

descargar Cruel Intentions (1999) REMUX 1080p Latino – CMHDD Full 1080p 1080p gratis, Cruel Intentions (1999) REMUX 1080p Latino – CMHDD Full 1080p mega 1 link, Cruel Intentions (1999) REMUX 1080p Latino – CMHDD Full 1080p pelicula completa, descargar Cruel Intentions (1999) REMUX 1080p Latino – CMHDD Full 1080p gratis en mega.

Cruel Intentions (1999) REMUX 1080p Latino – CMHDD pelicula full hd, Cruel Intentions (1999) REMUX 1080p Latino – CMHDD mega latino, Cruel Intentions (1999) REMUX 1080p Latino – CMHDD 4k latino, Cruel Intentions (1999) REMUX 1080p Latino – CMHDD pelicula completa, Cruel Intentions (1999) REMUX 1080p Latino – CMHDD descargar gratis, descargar Cruel Intentions (1999) REMUX 1080p Latino – CMHDD pelicula latino, Cruel Intentions (1999) REMUX 1080p Latino – CMHDD 1 link mega, Cruel Intentions (1999) REMUX 1080p Latino – CMHDD 1 link google drive, Cruel Intentions (1999) REMUX 1080p Latino – CMHDD hd 1080p latino.
Comentarios 0