×

¿Problemas para descargar con Mozilla, EDGE? Deshabilita la opción "Abrir vinculos en una pestaña nueva" tal como lo muestra ésta imagen.

Cruel Intentions (1999) Full HD 1080p Latino – CMHDD

301 vistas

Información de Cruel Intentions (1999) Full HD 1080p Latino – CMHDD

Datos de la película

  • Calidad: Full 1080p
  • Audio: Español Latino AC3 2.0 BLURAY - Ingles AC3 5.1 BLURAY
  • Subtitulos: Español Latino PGS
  • Resolución: 1920x1080p
  • Formato: MKV
  • Codec: H.264
  • Encoder: Dracarys
  • Mediainfo: Clic para Mostrar Datos Ver
  • Format                      : Matroska
    Format version              : Version 4
    File size                   : 4.98 GiB
    Duration                    : 1 h 37 min
    Overall bit rate            : 7 321 kb/s
    Movie name                  : Cruel Intentions (1999) Full HD 1080p Latino - CMHDD
    Encoded date                : UTC 2021-05-19 01:44:36
    Writing application         : mkvmerge v56.1.0 ('My Friend') 64-bit
    Writing library             : libebml v1.4.2 + libmatroska v1.6.4

    Video
    ID                          : 1
    Format                      : AVC
    Format/Info                 : Advanced Video Codec
    Format profile              : High@L4.1
    Format settings             : CABAC / 4 Ref Frames
    Format settings, CABAC      : Yes
    Format settings, Reference  : 4 frames
    Codec ID                    : V_MPEG4/ISO/AVC
    Duration                    : 1 h 37 min
    Bit rate                    : 6 471 kb/s
    Width                       : 1 920 pixels
    Height                      : 1 080 pixels
    Display aspect ratio        : 16:9
    Frame rate mode             : Constant
    Frame rate                  : 23.976 (24000/1001) FPS
    Color space                 : YUV
    Chroma subsampling          : 4:2:0
    Bit depth                   : 8 bits
    Scan type                   : Progressive
    Bits/(Pixel*Frame)          : 0.130
    Stream size                 : 4.41 GiB (88%)
    Writing library             : x264 core 157 r2935 545de2f
    Encoding settings           : cabac=1 / ref=4 / deblock=1:0:0 / analyse=0x3:0x133 / me=tesa / subme=11 / psy=1 / psy_rd=1.00:0.00 / mixed_ref=1 / me_range=24 / chroma_me=1 / trellis=2 / 8x8dct=1 / cqm=0 / deadzone=21,11 / fast_pskip=0 / chroma_qp_offset=-2 / threads=24 / lookahead_threads=6 / sliced_threads=0 / nr=0 / decimate=1 / interlaced=0 / bluray_compat=0 / constrained_intra=0 / bframes=16 / b_pyramid=2 / b_adapt=2 / b_bias=0 / direct=3 / weightb=1 / open_gop=0 / weightp=2 / keyint=240 / keyint_min=24 / scenecut=40 / intra_refresh=0 / rc_lookahead=60 / rc=crf / mbtree=1 / crf=20.0 / qcomp=0.60 / qpmin=0 / qpmax=69 / qpstep=4 / vbv_maxrate=62500 / vbv_bufsize=78125 / crf_max=0.0 / nal_hrd=none / filler=0 / ip_ratio=1.40 / aq=1:1.00
    Default                     : Yes
    Forced                      : No
    Color range                 : Limited
    Color primaries             : BT.709
    Transfer characteristics    : BT.709
    Matrix coefficients         : BT.709

    Audio #1
    ID                          : 2
    Format                      : AC-3
    Format/Info                 : Audio Coding 3
    Commercial name             : Dolby Digital
    Codec ID                    : A_AC3
    Duration                    : 1 h 37 min
    Bit rate mode               : Constant
    Bit rate                    : 384 kb/s
    Channel(s)                  : 2 channels
    Channel layout              : L R
    Sampling rate               : 48.0 kHz
    Frame rate                  : 31.250 FPS (1536 SPF)
    Compression mode            : Lossy
    Delay relative to video     : 800 ms
    Stream size                 : 268 MiB (5%)
    Language                    : Spanish
    Service kind                : Complete Main
    Default                     : Yes
    Forced                      : No

    Audio #2
    ID                          : 3
    Format                      : AC-3
    Format/Info                 : Audio Coding 3
    Commercial name             : Dolby Digital
    Codec ID                    : A_AC3
    Duration                    : 1 h 37 min
    Bit rate mode               : Constant
    Bit rate                    : 448 kb/s
    Channel(s)                  : 6 channels
    Channel layout              : L R C LFE Ls Rs
    Sampling rate               : 48.0 kHz
    Frame rate                  : 31.250 FPS (1536 SPF)
    Compression mode            : Lossy
    Stream size                 : 312 MiB (6%)
    Language                    : English
    Service kind                : Complete Main
    Default                     : No
    Forced                      : No

    Text
    ID                          : 4
    Format                      : PGS
    Muxing mode                 : zlib
    Codec ID                    : S_HDMV/PGS
    Codec ID/Info               : Picture based subtitle format used on BDs/HD-DVDs
    Duration                    : 1 h 31 min
    Bit rate                    : 50.1 kb/s
    Count of elements           : 2388
    Stream size                 : 32.8 MiB (1%)
    Language                    : Spanish
    Default                     : No
    Forced                      : No

    Menu
    00:00:00.000                : :Chapter 1
    00:07:36.790                : :Chapter 2
    00:14:21.861                : :Chapter 3
    00:18:29.400                : :Chapter 4
    00:22:33.519                : :Chapter 5
    00:30:44.885                : :Chapter 6
    00:34:13.093                : :Chapter 7
    00:41:28.111                : :Chapter 8
    00:49:54.325                : :Chapter 9
    00:53:03.806                : :Chapter 10
    00:58:58.535                : :Chapter 11
    01:05:37.559                : :Chapter 12
    01:11:13.895                : :Chapter 13
    01:17:36.235                : :Chapter 14
    01:23:01.602                : :Chapter 15
    01:25:50.729                : :Chapter 16

  • Peso: 4.98 GiB

Sinopsis

Kathryn y Sebastian son dos hermanastros que viven Manhattan, estudiantes de bachillerato en un elitista instituto de Nueva York. Cada uno es más manipulador y más perverso que el otro, así que harán una singular apuesta. Sebastian debe cortejar a una chica virgen que ha encandilado al novio de Kathryn. Si Sebastian pierde, Kathryn se quedará con su Jaguar, pero si gana… la tendrá a ella.

Ficha técnica

Video trailer de la película

Enlaces de descarga

Rip de Bluray

Descargar Cruel Intentions (1999) Full HD 1080p Latino – CMHDD




Aportes de DPeliculasHDmega la pass es:dpeliculashdmega.org Aportes de CinemaniaHD la pass es:cinemaniahdd.com
Guardado en : Drama , Romance

Películas relacionadas

descargar Cruel Intentions (1999) Full HD 1080p Latino – CMHDD Full 1080p 1080p gratis, Cruel Intentions (1999) Full HD 1080p Latino – CMHDD Full 1080p mega 1 link, Cruel Intentions (1999) Full HD 1080p Latino – CMHDD Full 1080p pelicula completa, descargar Cruel Intentions (1999) Full HD 1080p Latino – CMHDD Full 1080p gratis en mega.

Cruel Intentions (1999) Full HD 1080p Latino – CMHDD pelicula full hd, Cruel Intentions (1999) Full HD 1080p Latino – CMHDD mega latino, Cruel Intentions (1999) Full HD 1080p Latino – CMHDD 4k latino, Cruel Intentions (1999) Full HD 1080p Latino – CMHDD pelicula completa, Cruel Intentions (1999) Full HD 1080p Latino – CMHDD descargar gratis, descargar Cruel Intentions (1999) Full HD 1080p Latino – CMHDD pelicula latino, Cruel Intentions (1999) Full HD 1080p Latino – CMHDD 1 link mega, Cruel Intentions (1999) Full HD 1080p Latino – CMHDD 1 link google drive, Cruel Intentions (1999) Full HD 1080p Latino – CMHDD hd 1080p latino.
Comentarios 0