×

¿Problemas para descargar con Mozilla, EDGE? Deshabilita la opción "Abrir vinculos en una pestaña nueva" tal como lo muestra ésta imagen.

Crown Vic (2019) Full HD 1080p SUB – CMHDD

110 vistas

Información de Crown Vic (2019) Full HD 1080p SUB – CMHDD

Datos de la película

  • Calidad: Full 1080p
  • Audio: Ingles DTS 5.1 BLURAY
  • Subtitulos: Español Latino SRT
  • Resolución: 1920x1080p
  • Formato: MKV
  • Codec: H.264
  • Encoder: Dracarys
  • Mediainfo: Clic para Mostrar Datos Ver
  • Format                      : Matroska
    Format version              : Version 4
    File size                   : 3.41 GiB
    Duration                    : 1 h 50 min
    Overall bit rate            : 4 425 kb/s
    Movie name                  : Crown Vic (2019) Full HD 1080p SUB - CMHDD
    Encoded date                : UTC 2021-10-24 19:26:45
    Writing application         : mkvmerge v17.0.0 ('Be Ur Friend') 64-bit
    Writing library             : libebml v1.3.5 + libmatroska v1.4.8

    Video
    ID                          : 1
    Format                      : AVC
    Format/Info                 : Advanced Video Codec
    Format profile              : High@L4.1
    Format settings             : CABAC / 4 Ref Frames
    Format settings, CABAC      : Yes
    Format settings, Reference  : 4 frames
    Codec ID                    : V_MPEG4/ISO/AVC
    Duration                    : 1 h 50 min
    Bit rate                    : 2 913 kb/s
    Width                       : 1 920 pixels
    Height                      : 1 080 pixels
    Display aspect ratio        : 16:9
    Frame rate mode             : Constant
    Frame rate                  : 23.976 (24000/1001) FPS
    Color space                 : YUV
    Chroma subsampling          : 4:2:0
    Bit depth                   : 8 bits
    Scan type                   : Progressive
    Bits/(Pixel*Frame)          : 0.059
    Stream size                 : 2.25 GiB (66%)
    Writing library             : x264 core 163 r3059 b684ebe0
    Encoding settings           : cabac=1 / ref=4 / deblock=1:0:0 / analyse=0x3:0x133 / me=esa / subme=10 / psy=1 / psy_rd=1.00:0.00 / mixed_ref=1 / me_range=24 / chroma_me=1 / trellis=2 / 8x8dct=1 / cqm=0 / deadzone=21,11 / fast_pskip=1 / chroma_qp_offset=-2 / threads=24 / lookahead_threads=4 / sliced_threads=0 / nr=0 / decimate=1 / interlaced=0 / bluray_compat=0 / constrained_intra=0 / bframes=8 / b_pyramid=2 / b_adapt=2 / b_bias=0 / direct=3 / weightb=1 / open_gop=0 / weightp=2 / keyint=240 / keyint_min=24 / scenecut=40 / intra_refresh=0 / rc_lookahead=60 / rc=crf / mbtree=1 / crf=20.0 / qcomp=0.60 / qpmin=0 / qpmax=69 / qpstep=4 / vbv_maxrate=62500 / vbv_bufsize=78125 / crf_max=0.0 / nal_hrd=none / filler=0 / ip_ratio=1.40 / aq=1:1.00
    Default                     : Yes
    Forced                      : No
    Color range                 : Limited
    Color primaries             : BT.709
    Transfer characteristics    : BT.709
    Matrix coefficients         : BT.709

    Audio
    ID                          : 2
    Format                      : DTS
    Format/Info                 : Digital Theater Systems
    Codec ID                    : A_DTS
    Duration                    : 1 h 50 min
    Bit rate mode               : Constant
    Bit rate                    : 1 509 kb/s
    Channel(s)                  : 6 channels
    Channel layout              : C L R Ls Rs LFE
    Sampling rate               : 48.0 kHz
    Frame rate                  : 93.750 FPS (512 SPF)
    Bit depth                   : 16 bits
    Compression mode            : Lossy
    Stream size                 : 1.16 GiB (34%)
    Language                    : English
    Default                     : Yes
    Forced                      : No

    Text
    ID                          : 3
    Format                      : UTF-8
    Codec ID                    : S_TEXT/UTF8
    Codec ID/Info               : UTF-8 Plain Text
    Duration                    : 1 h 45 min
    Bit rate                    : 81 b/s
    Count of elements           : 1658
    Stream size                 : 63.3 KiB (0%)
    Language                    : Spanish
    Default                     : Yes
    Forced                      : No

    Menu
    00:00:00.000                : :Chapter 1
    00:09:11.384                : :Chapter 2
    00:18:51.505                : :Chapter 3
    00:27:17.761                : :Chapter 4
    00:38:53.957                : :Chapter 5
    00:45:42.740                : :Chapter 6
    00:55:58.897                : :Chapter 7
    01:05:54.325                : :Chapter 8
    01:14:48.401                : :Chapter 9
    01:27:30.245                : :Chapter 10
    01:36:13.518                : :Chapter 11
    01:46:27.756                : :Chapter 12

  • Peso: 3.41 GiB

Sinopsis

Dos agentes de policía que se encuentran en lugares opuestos de sus respectivas carreras se ven envueltos en una noche aciaga en la ciudad de Los Ángeles. Un novato que trata de escapar de la sombra de su padre ve cómo su primera patrulla se convierte en un desastre mientras intenta encontrar a una chica desaparecida y de dar caza a dos asesinos que han cometido varios crímenes a lo largo de la noche. Mientras tanto, su compañero, un policía quemado por el trabajo, le explica cómo funciona el trabajo.

Ficha técnica

  • Titulo original: Crown Vic
  • Fecha de lanzamiento: 01-11-2019 (United States of America)
  • Director: Joel Souza
  • Género: Crimen, Drama

Video trailer de la película

Enlaces de descarga

Rip de Bluray

Descargar Crown Vic (2019) Full HD 1080p SUB – CMHDD




Aportes de DPeliculasHDmega la pass es:dpeliculashdmega.org Aportes de CinemaniaHD la pass es:cinemaniahdd.com
Guardado en : Crimen , Drama

Películas relacionadas

descargar Crown Vic (2019) Full HD 1080p SUB – CMHDD Full 1080p 1080p gratis, Crown Vic (2019) Full HD 1080p SUB – CMHDD Full 1080p mega 1 link, Crown Vic (2019) Full HD 1080p SUB – CMHDD Full 1080p pelicula completa, descargar Crown Vic (2019) Full HD 1080p SUB – CMHDD Full 1080p gratis en mega.

Crown Vic (2019) Full HD 1080p SUB – CMHDD pelicula full hd, Crown Vic (2019) Full HD 1080p SUB – CMHDD mega latino, Crown Vic (2019) Full HD 1080p SUB – CMHDD 4k latino, Crown Vic (2019) Full HD 1080p SUB – CMHDD pelicula completa, Crown Vic (2019) Full HD 1080p SUB – CMHDD descargar gratis, descargar Crown Vic (2019) Full HD 1080p SUB – CMHDD pelicula latino, Crown Vic (2019) Full HD 1080p SUB – CMHDD 1 link mega, Crown Vic (2019) Full HD 1080p SUB – CMHDD 1 link google drive, Crown Vic (2019) Full HD 1080p SUB – CMHDD hd 1080p latino.
Comentarios 0